<?xml version="1.0" standalone="no"?>
<!DOCTYPE svg PUBLIC "-//W3C//DTD SVG 1.1//EN" "http://www.w3.org/Graphics/SVG/1.1/DTD/svg11.dtd" >
<svg xmlns="http://www.w3.org/2000/svg">
<metadata>Generated by IcoMoon</metadata>
<defs>
<font id="icomoon" horiz-adv-x="1024">
<font-face units-per-em="1024" ascent="896" descent="-128" />
<missing-glyph horiz-adv-x="1024" />
<glyph unicode="&#x20;" d="" />
<glyph unicode="&#xe900;" glyph-name="video" horiz-adv-x="1873" d="M1176.384-128h-1029.022c-81.332 0.134-147.228 66.030-147.362 147.349v729.289c0.134 81.332 66.030 147.228 147.349 147.362h1026.524c81.332-0.134 147.228-66.030 147.362-147.349v-726.778c0.031-1.123 0.049-2.445 0.049-3.771 0-80.268-64.728-145.418-144.835-146.101h-0.065zM1423.635 606.298v-444.596l412.111-232.264c3.6-2.144 7.939-3.412 12.574-3.412 13.738 0 24.874 11.137 24.874 24.874 0 0.345-0.007 0.687-0.021 1.029l0.002-0.049v864.162c-0.201 14.017-11.611 25.302-25.656 25.302-4.3 0-8.353-1.058-11.913-2.927l0.141 0.067z" />
<glyph unicode="&#xe901;" glyph-name="layer" horiz-adv-x="1065" d="M120.471 896h619.219c66.534 0 120.471-53.937 120.471-120.471v-598.739c0-66.534-53.937-120.471-120.471-120.471h-619.219c-66.534 0-120.471 53.937-120.471 120.471v598.739c0 66.534 53.937 120.471 120.471 120.471zM942.080 689.975c22.061-0.252 42.763-5.832 60.955-15.508l-0.719 0.349c19.702-10.79 35.491-26.578 45.982-45.687l0.299-0.594c10.652-20.48 16.384-40.157 16.384-95.031v-503.808c0-54.884-5.732-74.953-16.384-95.031-10.801-19.694-26.587-35.479-45.687-45.981l-0.594-0.299c-20.48-10.652-40.157-16.384-95.031-16.384h-544.788c-54.884 0-74.953 5.732-95.031 16.384-19.795 10.663-35.618 26.486-45.988 45.688l-0.293 0.593c-9.328 17.472-14.907 38.174-15.159 60.157l-0.001 0.079h525.924c73.286 0 99.529 7.78 126.153 21.705 26.684 14.254 47.989 35.559 61.854 61.447l0.39 0.796c13.924 26.624 21.705 53.208 21.705 126.153v484.974z" />
<glyph unicode="&#xe910;" glyph-name="display" horiz-adv-x="1396" d="M1256.397 896h-1116.8c-77.097 0-139.597-62.5-139.597-139.597v-604.928c0-0.004 0-0.008 0-0.013 0-77.097 62.5-139.597 139.597-139.597h120.051l-60.032-60.032c-8.455-8.455-13.684-20.135-13.684-33.037 0-25.803 20.918-46.721 46.721-46.721 12.902 0 24.582 5.229 33.037 13.684v0l126.566 126.106h611.469l126.515-126.106c8.455-8.455 20.135-13.684 33.037-13.684 25.803 0 46.721 20.918 46.721 46.721 0 12.902-5.229 24.582-13.684 33.037v0l-60.032 60.032h120.051c77.097 0 139.597 62.5 139.597 139.597v0 604.941c0 77.075-62.463 139.56-139.529 139.597h-0.004zM1302.925 151.475c-0.007-25.691-20.836-46.515-46.528-46.515h-1116.8c-25.697 0-46.528 20.831-46.528 46.528v0 604.915c0 25.697 20.831 46.528 46.528 46.528v0h1116.8c25.697 0 46.528-20.831 46.528-46.528v0z" />
<glyph unicode="&#xe920;" glyph-name="taggbox" horiz-adv-x="3413" d="M1369.908 100.168c-2.465 4.943-3.908 10.767-3.908 16.929 0 15.295 8.891 28.513 21.786 34.769l0.23 0.101c4.961 2.43 10.796 3.851 16.963 3.851 15.057 0 28.135-8.469 34.732-20.904l0.103-0.213c19.78-39.962 60.275-66.956 107.074-66.956 64.914 0 117.697 51.935 119.066 116.52l0.002 0.128v42.954c-32.694-24.767-73.909-39.868-118.626-40.426l-0.13-0.001c-0.302-0.002-0.66-0.003-1.018-0.003-108.48 0-196.42 87.94-196.42 196.42s87.94 196.42 196.42 196.42c108.48 0 196.42-87.94 196.42-196.42 0-0.209 0-0.419-0.001-0.628v0.033-196.243c-0.049-108.412-87.945-196.279-196.365-196.279-76.988 0-143.629 44.306-175.814 108.811l-0.514 1.138zM1428.444 383.583c0-65.587 53.169-118.756 118.756-118.756s118.756 53.169 118.756 118.756c0 65.587-53.169 118.756-118.756 118.756v0c-65.586 0-118.754-53.167-118.756-118.752v0zM1808.296 100.168c-2.54 4.98-4.028 10.862-4.028 17.091 0 15.281 8.955 28.471 21.904 34.607l0.232 0.099c4.962 2.431 10.797 3.852 16.965 3.852 15.056 0 28.135-8.47 34.73-20.905l0.103-0.213c19.78-39.962 60.275-66.956 107.074-66.956 64.914 0 117.697 51.935 119.066 116.52l0.002 0.128v42.954c-32.719-24.709-73.916-39.798-118.61-40.426l-0.146-0.002c-108.382 0-196.243 87.861-196.243 196.243s87.861 196.243 196.243 196.243v0c107.386 0 195.4-88.014 195.822-196.664v-196.243c-0.429-108.209-88.034-195.814-196.201-196.243h-1.549c-76.711 0.003-143.068 44.332-174.854 108.771l-0.509 1.142zM1866.832 383.583c0-65.587 53.169-118.756 118.756-118.756s118.756 53.169 118.756 118.756c0 65.587-53.169 118.756-118.756 118.756v0c-65.586 0-118.754-53.167-118.756-118.752v0zM0 378.955c0 164.433 133.3 297.733 297.733 297.733s297.733-133.3 297.733-297.733c0-164.433-133.3-297.733-297.733-297.733v0c-164.433 0-297.733 133.3-297.733 297.733v0zM24.004 378.955c0-151.176 122.553-273.729 273.729-273.729s273.729 122.553 273.729 273.729c0 151.176-122.553 273.729-273.729 273.729v0c-151.176 0-273.729-122.553-273.729-273.729v0zM195.030 136.81c-95.616 40.992-161.378 134.31-161.378 242.987 0 145.594 118.028 263.622 263.622 263.622s263.622-118.028 263.622-263.622c0-145.581-118.006-263.601-263.582-263.622h-0.002c-0.056 0-0.122 0-0.189 0-36.869 0-71.963 7.598-103.803 21.314l1.705-0.654zM109.492 368.427h109.070v-143.181l162.553 143.181h104.859v117.493h-376.483zM782.444 218.087c-20.276 19.681-32.858 47.19-32.858 77.639 0 0.539 0.004 1.077 0.012 1.614l-0.001-0.081v245.514h-40.428c-9.869 0.060-18.789 4.071-25.268 10.529l0.001-0.001c-6.495 6.154-10.537 14.842-10.537 24.474 0 0.279 0.003 0.557 0.010 0.835l-0.001-0.041v0.842c0.052 10.003 4.059 19.060 10.535 25.696l-0.007-0.007c6.25 6.743 15.155 10.95 25.042 10.95 0.079 0 0.158 0 0.237-0.001h40.416v125.915c0.052 10.003 4.059 19.060 10.535 25.696l-0.007-0.007c6.069 6.253 14.553 10.133 23.943 10.133 0.466 0 0.929-0.010 1.39-0.028l-0.066 0.002h1.263c0.116 0.001 0.253 0.002 0.39 0.002 9.68 0 18.459-3.856 24.885-10.117l-0.008 0.007c6.503-6.403 10.532-15.303 10.532-25.143 0-0.192-0.002-0.383-0.005-0.574v0.029-124.231h2.948v-1.263h68.222c9.954-0.019 18.923-4.217 25.251-10.932l0.016-0.017c6.503-6.405 10.532-15.306 10.532-25.148 0-0.19-0.002-0.38-0.004-0.569v0.029-0.842c-0.059-9.869-4.070-18.789-10.529-25.268l0.001 0.001c-6.154-6.495-14.842-10.537-24.474-10.537-0.279 0-0.557 0.003-0.835 0.010l0.041-0.001h-68.222v-1.684h-2.948v-243.408c-0.005-0.221-0.007-0.482-0.007-0.743 0-10.464 4.361-19.909 11.365-26.617l0.013-0.013c6.965-7.272 16.754-11.792 27.598-11.792 0.069 0 0.138 0 0.207 0.001h31.573c9.997-0.512 18.953-4.586 25.708-10.967l-0.019 0.018c6.502-6.301 10.538-15.114 10.538-24.87 0-0.288-0.004-0.575-0.010-0.861l0.001 0.042v-0.842c-0.059-9.869-4.070-18.789-10.529-25.268l0.001 0.001c-6.25-6.743-15.155-10.95-25.042-10.95-0.079 0-0.158 0-0.237 0.001h-32.869c-0.002 0-0.004 0-0.006 0-30.65 0-58.365 12.566-78.274 32.827l-0.015 0.016zM3107.877 195.346c-9.33 6.983-15.304 18.008-15.304 30.428 0 8.901 3.068 17.085 8.205 23.553l-0.060-0.078 103.175 133.917-103.175 133.917c-5.067 6.51-8.123 14.803-8.123 23.809 0 12.568 5.952 23.746 15.192 30.869l0.091 0.067c6.39 5.077 14.574 8.145 23.475 8.145 12.42 0 23.445-5.974 30.358-15.206l0.071-0.099 91.383-117.914 91.383 117.914c6.836 9.377 17.783 15.401 30.136 15.401 8.874 0 17.023-3.109 23.415-8.296l-0.069 0.054c9.32-7.199 15.264-18.378 15.264-30.945 0-9.001-3.049-17.29-8.171-23.889l0.066 0.089-103.175-133.917 103.175-133.917c5.077-6.39 8.145-14.574 8.145-23.475 0-12.42-5.974-23.445-15.206-30.358l-0.099-0.071c-6.234-5.209-14.323-8.385-23.154-8.422h-0.008c-12.247 0.095-23.144 5.797-30.261 14.663l-0.059 0.077-91.383 117.914-91.383-117.914c-6.998-9.026-17.843-14.78-30.031-14.78-9.080 0-17.414 3.193-23.941 8.517l0.069-0.054zM2663.173 383.166c0 108.382 87.861 196.243 196.243 196.243s196.243-87.861 196.243-196.243c0-108.382-87.861-196.243-196.243-196.243v0c-108.382 0-196.243 87.861-196.243 196.243v0zM2740.659 383.587c0-65.587 53.169-118.756 118.756-118.756s118.756 53.169 118.756 118.756c0 65.587-53.169 118.756-118.756 118.756v0c-65.587 0-118.756-53.169-118.756-118.756v0zM1265.049 188.187c-15.581 0-37.48 16.845-37.48 39.164-33.69-28.636-71.17-39.164-115.808-39.164-109.913 0-197.506 82.119-197.506 192.031-0.002 0.314-0.003 0.684-0.003 1.056 0 108.498 87.955 196.453 196.453 196.453 0.371 0 0.742-0.001 1.113-0.003h-0.057c109.913 0 192.031-87.593 192.453-197.085v-153.288c0.014-0.383 0.022-0.833 0.022-1.284 0-20.931-16.967-37.899-37.897-37.901v0c-0.446 0-0.868 0.008-1.289 0.021zM990.478 380.639c0-66.116 55.588-115.808 121.283-115.808s115.808 49.692 115.808 115.387-50.113 121.704-115.808 121.704c-66.605-0.935-120.35-54.682-121.282-121.198l-0.001-0.089zM2421.12 188.608h-0.093c-107.807 0-195.822 89.278-195.822 196.243v350.794c0 21.397 17.346 38.743 38.743 38.743s38.743-17.346 38.743-38.743v-194.558c32.596 24.712 73.836 39.586 118.55 39.586 0.073 0 0.145 0 0.218 0h-0.012c0.503 0.005 1.097 0.007 1.692 0.007 107.219 0 194.137-86.918 194.137-194.137 0-0.595-0.003-1.189-0.008-1.783l0.001 0.091c0-0.030 0-0.066 0-0.101 0-108.323-87.811-196.137-196.133-196.142v0zM2302.693 384.846c0-65.587 53.169-118.756 118.756-118.756s118.756 53.169 118.756 118.756c0 65.587-53.169 118.756-118.756 118.756v0c-65.587 0-118.756-53.169-118.756-118.756v0z" />
<glyph unicode="&#xe921;" glyph-name="play" d="M1023.734 400.706c-8.59 268.997-226.031 486.43-495.021 495.021-146.367 4.644-283.302-51.068-384.503-155.554-97.29-100.446-148.408-232.867-143.937-372.886 8.583-268.99 226.024-486.43 495.013-495.013 5.6-0.18 11.15-0.266 16.713-0.266 139.847 0 270.463 55.338 367.79 155.82 97.29 100.439 148.416 232.867 143.944 372.879zM802.34 102.84c-76.832-79.326-179.945-123.011-290.34-123.011-4.414 0-8.828 0.072-13.277 0.208-212.293 6.779-383.899 178.385-390.685 390.685-3.53 110.575 36.82 215.14 113.623 294.43 76.832 79.326 179.945 123.011 290.34 123.011 4.414 0 8.828-0.072 13.277-0.208 212.293-6.779 383.899-178.385 390.685-390.685 3.53-110.575-36.827-215.14-113.623-294.43zM679.933 413.746l-227.044 162.793c-24.218 17.368-57.933 0.058-57.933-29.746v-325.593c0-29.804 33.714-47.114 57.933-29.746l227.037 162.8c20.372 14.6 20.372 44.886 0.007 59.493z" />
<glyph unicode="&#xe922;" glyph-name="calendar" horiz-adv-x="931" d="M465.47 58.162c25.71 0 46.551 20.842 46.551 46.551s-20.842 46.551-46.551 46.551c-25.71 0-46.551-20.842-46.551-46.551v0c0-25.71 20.842-46.551 46.551-46.551v0zM698.012 58.162c25.71 0 46.551 20.842 46.551 46.551s-20.842 46.551-46.551 46.551c-25.71 0-46.551-20.842-46.551-46.551v0c0-25.71 20.842-46.551 46.551-46.551v0zM698.012 244.368c25.71 0 46.551 20.842 46.551 46.551s-20.842 46.551-46.551 46.551c-25.71 0-46.551-20.842-46.551-46.551v0c0-25.71 20.842-46.551 46.551-46.551v0zM465.47 244.368c25.71 0 46.551 20.842 46.551 46.551s-20.842 46.551-46.551 46.551c-25.71 0-46.551-20.842-46.551-46.551v0c0-25.71 20.842-46.551 46.551-46.551v0zM791.33 803.027h-46.551v46.422c-0.787 25.093-21.318 45.136-46.53 45.136s-45.742-20.042-46.528-45.063l-0.002-0.072v-46.508h-372.454v46.508c-0.787 25.093-21.318 45.136-46.53 45.136s-45.742-20.042-46.528-45.063l-0.002-0.072v-46.508h-46.594c-77.060 0-139.537-62.432-139.611-139.475v-651.855c0-77.105 62.506-139.611 139.611-139.611v0h651.719c77.105 0 139.611 62.506 139.611 139.611v651.848c0 0.013 0 0.028 0 0.043 0 77.105-62.506 139.611-139.611 139.611v0zM837.881 11.697c0-25.71-20.842-46.551-46.551-46.551v0h-651.719c-25.71 0-46.551 20.842-46.551 46.551v0 418.833h744.778zM837.881 523.719h-744.821v139.74c0.122 25.617 20.917 46.336 46.551 46.336 0 0 0 0 0.001 0h46.551v-46.336c0.787-25.093 21.318-45.136 46.53-45.136s45.742 20.042 46.528 45.063l0.002 0.072v46.336h372.368v-46.336c0.787-25.093 21.318-45.136 46.53-45.136s45.742 20.042 46.528 45.063l0.002 0.072v46.336h46.551c0 0 0 0 0 0 25.634 0 46.429-20.719 46.551-46.324v-0.012zM232.541 244.368c25.71 0 46.551 20.842 46.551 46.551s-20.842 46.551-46.551 46.551c-25.71 0-46.551-20.842-46.551-46.551v0c0-25.71 20.842-46.551 46.551-46.551v0zM232.541 58.162c25.71 0 46.551 20.842 46.551 46.551s-20.842 46.551-46.551 46.551c-25.71 0-46.551-20.842-46.551-46.551v0c0-25.71 20.842-46.551 46.551-46.551v0z" />
<glyph unicode="&#xe923;" d="M418.486 122.219c-20.694 0.016-37.463 16.795-37.463 37.492 0 4.488 0.789 8.792 2.235 12.78l-0.083-0.261c1.767 4.931 4.375 9.166 7.685 12.741l181.655 198.17-199.251 199.284c-6.784 6.775-10.98 16.138-10.98 26.482 0 18.15 12.92 33.283 30.065 36.702l0.239 0.040c2.128 0.429 4.574 0.675 7.077 0.675 10.345 0 19.709-4.197 26.483-10.981v0l224.619-224.619c6.799-6.767 11.006-16.133 11.006-26.481 0-9.779-3.757-18.68-9.906-25.339l0.023 0.025-205.824-224.619c-1.805-1.947-3.784-3.685-5.927-5.206l-0.118-0.079c-3.981-2.854-8.697-4.97-13.798-6.036l-0.24-0.042c-2.212-0.462-4.754-0.727-7.357-0.727-0.050 0-0.099 0-0.149 0h0.008z" />
<glyph unicode="&#xe924;" d="M512-128c18.44 0 36.655 0.96 54.599 2.832l-2.243-0.19c19.822 2.035 37.157 4.771 54.181 8.351l-3.344-0.588c19.944 4.047 36.407 8.405 52.505 13.576l-3.452-0.958q24.047 7.465 47.038 17.21t44.759 21.57c14.501 7.895 28.606 16.516 42.215 25.633s26.789 19.060 39.407 29.465 24.807 21.504 36.335 33.032 22.66 23.783 33.032 36.335 20.315 25.864 29.465 39.407 17.804 27.813 25.633 42.215 15.129 29.729 21.57 44.759c5.383 12.051 11.227 27.646 16.271 43.596l0.939 3.442c4.922 15.889 9.249 32.57 12.618 49.053 2.991 13.68 5.727 31.015 7.574 48.615l0.189 2.222c1.684 15.701 2.644 33.917 2.644 52.356s-0.96 36.654-2.834 54.598l0.19-2.241c-2.035 19.822-4.771 37.156-8.351 54.181l0.588-3.344c-4.047 19.944-8.405 36.407-13.576 52.505l0.958-3.452q-7.465 24.014-17.21 47.038t-21.57 44.759c-7.895 14.501-16.516 28.606-25.633 42.215s-19.060 26.789-29.465 39.407-21.504 24.807-33.032 36.335-23.783 22.66-36.335 33.032-25.864 20.315-39.407 29.465-27.813 17.804-42.215 25.633-29.729 15.129-44.759 21.57c-12.205 5.491-27.801 11.348-43.771 16.359l-3.267 0.884c-15.889 4.823-32.57 9.249-49.053 12.618-13.661 3.016-30.99 5.786-48.584 7.666l-2.252 0.195c-15.701 1.684-33.917 2.644-52.356 2.644s-36.654-0.96-54.598-2.834l2.241 0.19c-19.822-2.035-37.157-4.771-54.181-8.351l3.344 0.588c-19.953-4.087-36.412-8.478-52.504-13.682l3.451 0.965q-24.014-7.498-47.038-17.21t-44.759-21.57c-14.501-7.895-28.606-16.516-42.215-25.633s-26.789-19.060-39.407-29.465-24.807-21.504-36.335-33.032-22.66-23.783-33.032-36.335-20.315-25.864-29.465-39.407-17.804-27.813-25.633-42.215-15.129-29.729-21.57-44.759c-5.467-12.187-11.301-27.773-16.294-43.732l-0.883-3.273c-4.823-15.889-9.249-32.57-12.618-49.053-3.016-13.66-5.786-30.989-7.666-48.584l-0.195-2.253c-1.684-15.701-2.644-33.917-2.644-52.356s0.96-36.654 2.834-54.598l-0.19 2.241c2.035-19.822 4.771-37.157 8.351-54.181l-0.588 3.344c4.087-19.953 8.478-36.412 13.682-52.504l-0.965 3.451q7.498-24.047 17.21-47.038t21.57-44.759c7.895-14.501 16.516-28.606 25.633-42.215s19.060-26.789 29.465-39.407 21.504-24.807 33.032-36.335 23.783-22.66 36.335-33.032 25.864-20.315 39.407-29.465 27.813-17.804 42.215-25.633 29.729-15.129 44.759-21.57c12.051-5.383 27.646-11.227 43.596-16.271l3.442-0.939c15.889-4.922 32.57-9.249 49.053-12.618 13.68-2.991 31.015-5.727 48.614-7.574l2.222-0.189c15.664-1.7 33.862-2.683 52.285-2.709h0.038zM399.69 646.309c10.324-0.001 19.668-4.192 26.425-10.966l224.62-224.62c6.782-6.769 10.978-16.128 10.978-26.466 0-9.768-3.745-18.661-9.878-25.322l0.024 0.026-205.824-224.619c-1.795-1.949-3.763-3.686-5.897-5.207l-0.115-0.078c-3.984-2.847-8.698-4.962-13.796-6.035l-0.243-0.043c-2.288-0.496-4.915-0.78-7.61-0.78-20.706 0-37.492 16.786-37.492 37.492 0 4.496 0.791 8.806 2.242 12.801l-0.083-0.261c1.78 4.928 4.386 9.161 7.687 12.743l-0.024-0.026 181.677 198.194-199.118 199.284c-6.784 6.775-10.98 16.138-10.98 26.482 0 18.15 12.92 33.283 30.065 36.702l0.239 0.040c2.113 0.42 4.541 0.661 7.026 0.661 0.027 0 0.053 0 0.080 0h-0.004z" />
<glyph unicode="&#xe925;" d="M605.514 122.219c-8.081 0.020-15.56 2.577-21.688 6.917l0.118-0.079c-2.244 1.608-4.212 3.345-5.989 5.26l-0.023 0.025-205.824 224.619c-6.132 6.626-9.893 15.523-9.893 25.298 0 10.344 4.212 19.705 11.014 26.461l224.621 224.621c3.437 3.468 7.557 6.252 12.142 8.136l0.245 0.089c4.144 1.734 8.959 2.742 14.009 2.742 0.022 0 0.044 0 0.066 0h-0.003c0.009 0 0.019 0 0.030 0 2.501 0 4.946-0.24 7.313-0.699l-0.24 0.039c12.597-2.481 22.763-11.030 27.458-22.412l0.091-0.248c1.727-4.178 2.731-9.030 2.731-14.117 0-2.531-0.248-5.005-0.722-7.397l0.040 0.241c-1.5-7.618-5.145-14.214-10.272-19.323l-199.285-199.285 181.677-198.194c6.099-6.641 9.838-15.535 9.838-25.303 0-20.686-16.767-37.455-37.452-37.459v0z" />
<glyph unicode="&#xe926;" d="M512-128c-18.44 0-36.655 0.96-54.599 2.832l2.243-0.19c-19.822 2.035-37.157 4.771-54.181 8.351l3.344-0.588c-19.944 4.047-36.407 8.405-52.505 13.576l3.452-0.958q-24.014 7.465-47.038 17.21t-44.759 21.57c-14.501 7.895-28.606 16.516-42.215 25.633s-26.789 19.060-39.407 29.465-24.807 21.504-36.335 33.032-22.66 23.783-33.032 36.335-20.315 25.864-29.465 39.407-17.804 27.813-25.633 42.215-15.129 29.729-21.57 44.759c-5.471 12.217-11.307 27.837-16.297 43.831l-0.88 3.273c-4.823 15.889-9.249 32.57-12.618 49.053-3.016 13.661-5.786 30.99-7.666 48.584l-0.195 2.252c-1.684 15.701-2.644 33.917-2.644 52.356s0.96 36.654 2.834 54.598l-0.19-2.241c2.035 19.822 4.771 37.156 8.351 54.181l-0.588-3.344c4.087 19.953 8.478 36.412 13.682 52.504l-0.965-3.451q7.498 24.014 17.21 47.038t21.57 44.759c7.895 14.501 16.516 28.606 25.633 42.215s19.060 26.789 29.465 39.407 21.504 24.807 33.032 36.335 23.783 22.66 36.335 33.032 25.864 20.315 39.407 29.465 27.813 17.804 42.215 25.633 29.729 15.129 44.759 21.57c12.187 5.467 27.773 11.301 43.732 16.294l3.273 0.883c15.889 4.823 32.57 9.249 49.053 12.618 13.661 3.016 30.99 5.786 48.584 7.666l2.252 0.195c15.701 1.684 33.917 2.644 52.356 2.644s36.654-0.96 54.598-2.834l-2.241 0.19c19.822-2.035 37.156-4.771 54.181-8.351l-3.344 0.588c19.953-4.087 36.412-8.478 52.504-13.682l-3.451 0.965q24.047-7.498 47.038-17.21t44.759-21.57c14.501-7.895 28.606-16.516 42.215-25.633s26.789-19.060 39.407-29.465 24.807-21.504 36.335-33.032 22.66-23.783 33.032-36.335 20.315-25.864 29.465-39.407 17.804-27.813 25.633-42.215 15.129-29.729 21.57-44.759c5.383-12.051 11.227-27.646 16.271-43.596l0.939-3.442c4.922-15.889 9.249-32.57 12.618-49.053 2.991-13.68 5.727-31.015 7.574-48.614l0.189-2.222c1.684-15.701 2.644-33.917 2.644-52.356s-0.96-36.654-2.834-54.598l0.19 2.241c-2.035-19.822-4.771-37.157-8.351-54.181l0.588 3.344c-4.047-19.944-8.405-36.407-13.576-52.505l0.958 3.452q-7.465-24.047-17.21-47.038t-21.57-44.759c-7.895-14.501-16.516-28.606-25.633-42.215s-19.060-26.789-29.465-39.407-21.504-24.807-33.032-36.335-23.783-22.66-36.335-33.032-25.864-20.315-39.407-29.465-27.813-17.804-42.215-25.633-29.729-15.129-44.759-21.57c-12.051-5.383-27.646-11.227-43.596-16.271l-3.442-0.939c-15.889-4.922-32.57-9.249-49.053-12.618-13.68-2.991-31.015-5.727-48.615-7.574l-2.222-0.189c-15.688-1.692-33.901-2.663-52.338-2.676h-0.018zM624.31 646.309c-10.324-0.001-19.668-4.192-26.425-10.966l-224.62-224.62c-6.782-6.769-10.978-16.128-10.978-26.466 0-9.768 3.745-18.661 9.878-25.322l-0.024 0.026 205.824-224.619c1.795-1.949 3.763-3.686 5.897-5.207l0.115-0.078c3.984-2.847 8.698-4.962 13.796-6.035l0.243-0.043c2.288-0.496 4.915-0.78 7.61-0.78 20.706 0 37.492 16.786 37.492 37.492 0 4.496-0.791 8.806-2.242 12.801l0.083-0.261c-1.78 4.928-4.386 9.161-7.687 12.743l0.024-0.026-181.677 198.194 199.118 199.284c6.784 6.775 10.98 16.138 10.98 26.482 0 18.15-12.92 33.283-30.065 36.702l-0.239 0.040c-2.113 0.42-4.541 0.661-7.026 0.661-0.027 0-0.053 0-0.080 0h0.004z" />
<glyph unicode="&#xe927;" glyph-name="toggle" d="M597.333 682.667c0-47.128-38.205-85.333-85.333-85.333s-85.333 38.205-85.333 85.333c0 47.128 38.205 85.333 85.333 85.333s85.333-38.205 85.333-85.333zM597.333 384c0-47.128-38.205-85.333-85.333-85.333s-85.333 38.205-85.333 85.333c0 47.128 38.205 85.333 85.333 85.333s85.333-38.205 85.333-85.333zM597.333 85.333c0-47.128-38.205-85.333-85.333-85.333s-85.333 38.205-85.333 85.333c0 47.128 38.205 85.333 85.333 85.333s85.333-38.205 85.333-85.333z" />
<glyph unicode="&#xe928;" glyph-name="iconmonstr-instagram-11" d="M512 803.712c136.704 0 152.917-0.512 206.933-2.987 138.752-6.315 203.563-72.149 209.877-209.877 2.475-53.973 2.944-70.187 2.944-206.891 0-136.747-0.512-152.917-2.944-206.891-6.357-137.6-70.997-203.563-209.877-209.877-54.016-2.475-70.144-2.987-206.933-2.987-136.704 0-152.917 0.512-206.891 2.987-139.093 6.357-203.563 72.491-209.877 209.92-2.475 53.973-2.987 70.144-2.987 206.891 0 136.704 0.555 152.875 2.987 206.891 6.357 137.685 70.997 203.563 209.877 209.877 54.016 2.432 70.187 2.944 206.891 2.944zM512 896c-139.051 0-156.459-0.597-211.072-3.072-185.941-8.533-289.28-111.701-297.813-297.813-2.517-54.656-3.115-72.064-3.115-211.115s0.597-156.501 3.072-211.115c8.533-185.941 111.701-289.28 297.813-297.813 54.656-2.475 72.064-3.072 211.115-3.072s156.501 0.597 211.115 3.072c185.771 8.533 289.365 111.701 297.771 297.813 2.517 54.613 3.115 72.064 3.115 211.115s-0.597 156.459-3.072 211.072c-8.363 185.771-111.659 289.28-297.771 297.813-54.656 2.517-72.107 3.115-211.157 3.115zM512 646.912c-145.195 0-262.912-117.717-262.912-262.912s117.717-262.955 262.912-262.955 262.912 117.717 262.912 262.955c0 145.195-117.717 262.912-262.912 262.912zM512 213.333c-94.251 0-170.667 76.373-170.667 170.667 0 94.251 76.416 170.667 170.667 170.667s170.667-76.416 170.667-170.667c0-94.293-76.416-170.667-170.667-170.667zM785.323 718.72c-33.963 0-61.483-27.52-61.483-61.44s27.52-61.44 61.483-61.44c33.92 0 61.397 27.52 61.397 61.44s-27.477 61.44-61.397 61.44z" />
<glyph unicode="&#xe929;" glyph-name="share-alt" d="M470.922 377.44l298.95 298.95-543.546-181.182 244.596-117.768zM79.557 536.234l760.477 253.492c17.884 5.961 37.214-3.704 43.176-21.588 2.335-7.006 2.335-14.581 0-21.588l-253.492-760.477c-5.961-17.884-25.292-27.549-43.176-21.588-8.756 2.919-15.956 9.258-19.96 17.574l-159.587 331.45-331.45 159.587c-16.985 8.178-24.125 28.577-15.947 45.562 4.004 8.316 11.205 14.656 19.96 17.574z" />
<glyph unicode="&#xe92d;" glyph-name="add-image" horiz-adv-x="1346" d="M102.418 896c-56.472-0.228-102.189-45.946-102.418-102.396v-672.939c0.228-56.472 45.946-102.189 102.396-102.418h792.269c35.754-86.412 119.397-146.101 216.981-146.101 129.331 0 234.175 104.844 234.175 234.175 0 97.584-59.689 181.227-144.548 216.411l-1.553 0.57v470.279c-0.228 56.472-45.946 102.189-102.396 102.418h-0.022zM102.418 837.681h994.751c0.215 0.004 0.469 0.006 0.724 0.006 23.835 0 43.156-19.322 43.156-43.156 0-0.255-0.002-0.509-0.007-0.762l0.001 0.038v-455.789c-8.66 1.302-18.782 2.128-29.067 2.286l-0.183 0.002c-1.391 0-2.737-0.449-4.127-0.449l-177.381 140.819c-4.947 3.684-11.179 5.899-17.927 5.899-7.263 0-13.927-2.565-19.136-6.838l0.053 0.042-202.952-171.908-259.252 285.855c-5.552 5.505-13.196 8.908-21.636 8.908-7.226 0-13.869-2.494-19.116-6.668l0.063 0.048-331.972-293.481v491.050c-0.004 0.229-0.007 0.5-0.007 0.771 0 23.835 19.322 43.156 43.156 43.156 0.302 0 0.604-0.003 0.904-0.009l-0.045 0.001zM717.015 720.638c-56.564 0-102.418-45.854-102.418-102.418s45.854-102.418 102.418-102.418c56.564 0 102.418 45.854 102.418 102.418v0c-0.356 56.463-46.147 102.112-102.63 102.238h-0.012zM717.015 662.318c24.231 0 43.874-19.643 43.874-43.874s-19.643-43.874-43.874-43.874c-24.231 0-43.874 19.643-43.874 43.874v0c0 0 0 0 0 0 0 24.008 19.462 43.47 43.47 43.47 0.063 0 0.126 0 0.189 0h-0.010zM407.474 533.388l258.759-285.72c5.495-5.493 13.086-8.89 21.47-8.89 7.175 0 13.769 2.488 18.966 6.648l-0.060-0.047 206.63 174.644 118.389-94.208c-90.215-33.825-153.317-119.215-153.604-219.38v-0.035c0.159-10.466 0.985-20.589 2.439-30.507l-0.151 1.258h-777.892c-0.215-0.004-0.469-0.006-0.724-0.006-23.835 0-43.156 19.322-43.156 43.156 0 0.255 0.002 0.509 0.007 0.762l-0.001-0.038v103.764zM1111.793 282.165c96.949 0 175.542-78.593 175.542-175.542s-78.593-175.542-175.542-175.542c-96.949 0-175.542 78.593-175.542 175.542v0c0 0 0 0.001 0 0.001 0 96.627 78.332 174.958 174.958 174.958 0.205 0 0.41 0 0.615-0.001h-0.032zM1086.357-19.93v246.018h42.080v-246.018zM983.446 82.264v41.766h247.903v-41.766z" />
<glyph unicode="&#xe92e;" glyph-name="camera" horiz-adv-x="1311" d="M1133.773 561.070c19.070 0 34.529-15.459 34.529-34.529s-15.459-34.529-34.529-34.529c-19.070 0-34.529 15.459-34.529 34.529v0c0 19.070 15.459 34.529 34.529 34.529v0zM655.36 547.84c-124.22 0-225.28-101.060-225.28-225.28s101.060-225.28 225.28-225.28c124.22 0 225.28 101.060 225.28 225.28s-101.060 225.28-225.28 225.28zM655.36 609.28c158.351 0 286.72-128.369 286.72-286.72s-128.369-286.72-286.72-286.72c-158.351 0-286.72 128.369-286.72 286.72s128.369 286.72 286.72 286.72zM1146.876-66.568c56.475 0 102.42 45.946 102.42 102.42v532.464c0 56.475-45.946 102.42-102.42 102.42h-225.264v61.44c0 56.454-45.946 102.384-102.42 102.384h-327.684c-56.454 0-102.384-45.929-102.384-102.384v-61.44h-225.3c-56.454 0-102.384-45.946-102.384-102.42v-532.464c0-56.475 45.929-102.42 102.384-102.42h983.052zM1146.876-128.008h-983.052c-90.464 0-163.824 73.359-163.824 163.86v532.464c0 90.501 73.359 163.86 163.824 163.86h163.86c0 90.464 73.359 163.824 163.824 163.824h327.684c90.501 0 163.86-73.359 163.86-163.824h163.824c90.501 0 163.86-73.359 163.86-163.86v-532.464c0-90.501-73.359-163.86-163.86-163.86z" />
<glyph unicode="&#xe92f;" glyph-name="share" d="M1019.733 814.933c-6.4 10.667-17.067 17.067-27.733 17.067h-960c-12.8-2.133-25.6-10.667-29.867-21.333s-2.133-25.6 6.4-36.267l339.2-332.8 117.333-482.133c2.133-12.8 12.8-21.333 25.6-23.467h4.267c10.667 0 21.333 6.4 27.733 14.933l494.933 832c8.533 8.533 8.533 21.333 2.133 32zM110.933 765.867h757.333l-484.267-268.8-273.067 268.8zM509.867 49.067l-93.867 392.533 488.533 270.933-394.667-663.467z" />
<glyph unicode="&#xe930;" glyph-name="Mail" d="M213.333 640h597.333c47.128 0 85.333-38.205 85.333-85.333v-384c0-47.128-38.205-85.333-85.333-85.333h-597.333c-47.128 0-85.333 38.205-85.333 85.333v384c0 47.128 38.205 85.333 85.333 85.333zM774.162 561.508l-262.162-141.164-262.162 141.164c-15.561 8.379-34.967 2.557-43.346-13.004s-2.557-34.967 13.004-43.346l277.333-149.333c9.471-5.1 20.871-5.1 30.342 0l277.333 149.333c15.561 8.379 21.383 27.786 13.004 43.346s-27.786 21.383-43.346 13.004z" />
<glyph unicode="&#xe931;" glyph-name="open-link" d="M1024 383.986v-399.612c0-62.077-50.324-112.401-112.401-112.401v0h-799.198c-62.077 0-112.401 50.324-112.401 112.401v0 799.225c0 62.077 50.324 112.401 112.401 112.401v0h399.612c20.692 0 37.467-16.775 37.467-37.467s-16.775-37.467-37.467-37.467h-399.612c-20.692 0-37.467-16.775-37.467-37.467v0-799.225c0-20.692 16.775-37.467 37.467-37.467v0h799.225c20.692 0 37.467 16.775 37.467 37.467v0 399.612c0 20.692 16.775 37.467 37.467 37.467s37.467-16.775 37.467-37.467v0zM1024.027 858.533v-243.004c0-20.692-16.775-37.467-37.467-37.467s-37.467 16.775-37.467 37.467v0 152.597l-410.61-410.61c-6.649-6.127-15.564-9.884-25.356-9.884-20.692 0-37.467 16.775-37.467 37.467 0 9.792 3.757 18.708 9.908 25.383l-0.024-0.026 410.61 410.61h-152.624c-20.692 0-37.467 16.775-37.467 37.467s16.775 37.467 37.467 37.467h243.004c4.929-0.048 9.611-1.046 13.891-2.819l-0.247 0.091c9.334-3.888 16.606-11.16 20.402-20.246l0.092-0.247c1.924-4.181 3.105-9.057 3.246-14.194l0.001-0.051z" />
<glyph unicode="&#xe932;" glyph-name="bag" d="M983.603 167.27c-3.43 103.219-11.162 206.285-17.357 309.402-0.776 32.899-3.689 64.429-8.616 95.287l0.526-3.997c-12.292 65.938-69.385 115.19-137.982 115.19-1.189 0-2.374-0.015-3.556-0.044l0.175 0.003h-84.634c0.009 0.739 0.015 1.612 0.015 2.486 0 58.806-24.122 111.978-63.010 150.161l-0.032 0.031c-37.931 37.225-89.958 60.202-147.351 60.202-2.197 0-4.387-0.034-6.568-0.101l0.319 0.008c-57.73-0.959-109.61-25.231-146.781-63.783l-0.061-0.064c-36.115-37.442-58.364-88.469-58.364-144.693 0-1.566 0.017-3.127 0.052-4.685l-0.004 0.232c-33.331 0-65.485 0.563-97.587 0-74.054-1.596-133.993-59.878-138.223-133.099l-0.017-0.379c-2.611-43.11-5.632-86.17-8.141-129.28-5.12-90.010-13.056-179.968-14.848-270.029-0.052-1.98-0.082-4.31-0.082-6.648 0-74.031 29.679-141.131 77.789-190.049l-0.037 0.037c49.21-50.045 117.642-81.057 193.316-81.057 0.689 0 1.378 0.003 2.067 0.008l-0.106-0.001c127.386-0.717 254.771 0 382.157 0.41 0.95-0.013 2.072-0.020 3.195-0.020 45.019 0 87.334 11.579 124.129 31.922l-1.321-0.67c90.56 45.896 151.549 138.295 151.549 244.939 0 6.432-0.222 12.812-0.658 19.133l0.047-0.853zM445.44 788.89c20.691 15.244 46.686 24.397 74.819 24.397 24.438 0 47.262-6.906 66.629-18.874l-0.545 0.314c37.282-19.582 62.275-58.034 62.275-102.323 0-3.036-0.117-6.045-0.348-9.022l0.025 0.395h-254.874c-0.292 3.037-0.458 6.567-0.458 10.135 0 39.837 20.746 74.828 52.024 94.759l0.454 0.27zM730.88 510.413c-0.771-24.728-6.617-47.907-16.524-68.786l0.448 1.048c-7.176-15.346-15.481-28.569-25.179-40.624l0.296 0.381c-15.218-18.948-33.178-34.919-53.431-47.558l-0.892-0.519c-5.991-3.787-13.14-7.712-20.523-11.224l-1.289-0.552q-7.526-3.533-15.36-6.451-3.942-1.485-7.936-2.765-8.038-2.611-16.282-4.608c-17.408-4.198-35.43-5.786-53.197-8.55-45.975 0.566-88.468 14.998-123.622 39.295l0.742-0.485q-7.424 5.12-14.387 10.854t-13.363 11.981c-12.57 12.282-23.522 26.134-32.562 41.262l-0.513 0.927c-11.773 19.639-20.394 42.604-24.47 67.106l-0.157 1.144c-1.019 6.284-1.601 13.527-1.601 20.906 0 0.678 0.005 1.355 0.015 2.031l-0.001-0.102c0.003 7.426 1.644 14.468 4.582 20.785l-0.127-0.305c2.784 6.001 6.794 11.012 11.74 14.884l0.088 0.066c1.875 1.451 3.99 2.78 6.23 3.894l0.221 0.099c4.483 2.212 9.727 3.618 15.268 3.888l0.092 0.004c0.88 0.065 1.906 0.102 2.94 0.102 6.162 0 12.016-1.319 17.295-3.691l-0.267 0.107c3.727-1.703 6.934-3.812 9.767-6.332l-0.039 0.034c8.005-7.403 13.32-17.613 14.374-29.057l0.013-0.178c2.185-34.254 18.229-64.378 42.531-85.107l0.17-0.141c4.563-3.58 9.687-6.971 15.076-9.941l0.591-0.299c11.123-6.196 24.006-11.201 37.601-14.345l1.004-0.195c9.52-2.315 20.45-3.643 31.691-3.643 17.488 0 34.225 3.214 49.653 9.083l-0.959-0.32c5.566 2.072 10.090 4.089 14.473 6.341l-0.751-0.351c7.92 4.047 14.731 8.453 21.046 13.458l-0.258-0.198q3.84 3.021 7.424 6.4c4.72 4.427 9.002 9.196 12.852 14.309l0.204 0.283q2.918 3.942 5.53 8.141c6.581 11.077 11.668 23.945 14.549 37.625l0.146 0.826c1.024 4.506 1.843 9.062 2.509 13.517 0.405 19.921 13.39 36.704 31.317 42.759l0.325 0.095c2.988 0.723 6.418 1.138 9.945 1.138 1.113 0 2.216-0.041 3.308-0.122l-0.146 0.009c5.917-0.33 11.402-1.882 16.304-4.407l-0.227 0.106c3.686-1.92 6.844-4.277 9.568-7.059l0.006-0.007c1.871-1.875 3.557-3.935 5.028-6.15l0.092-0.147c2.943-4.596 5.166-9.968 6.347-15.719l0.053-0.306c0.802-3.755 1.261-8.070 1.261-12.492 0-0.703-0.012-1.403-0.035-2.1l0.003 0.102z" />
<glyph unicode="&#xe933;" glyph-name="workplace" d="M917.976 389.58c-33.019-234.373-148.357-230.253-148.357-230.253s-64.8-15.366-110.764 134.751l-30.702 78.425s-24.233-62.305-32.431-83.073c-7.511-19.106-41.536-188.545-158.567-111.217-28.819 19.008-43.266 71.165-73.967 143.581-40.089 94.079-77.99 197.399-77.99 197.399h117.662l81.889-199.545s24.233 58.153 31.155 77.983c65.309 189.79 158.628 144.341 194.768 74.28 12.496-24.233 25.14-61.783 35.999-91.069 14.716-39.666 29.837-78.259 29.837-78.259 11.595 15.366 18.45 41.119 29.107 78.259 9.553 33.4 8.443 128.969-23.987 185.252-47.141 81.761-182.585 202.114-398.82 103.571 0 0-293.765-159.848-112.947-474.523 0 0 114.4-193.836 359.982-126.234v-115.957c-319.065-50.059-497.639 187.392-523.761 334.296-21.578 121.635-13.269 333.162 204.696 465.037 286.119 173.068 654.974-23.883 607.195-362.704z" />
<glyph unicode="&#xe938;" glyph-name="rss" d="M965.172-72.557c-56.062 0-182.462 1.275-182.462 1.275v27.268c-3.46 149.731-55.143 286.751-140.050 396.831l1.166-1.573c-141.95 188.857-331.292 290.509-568.038 297.647-4.892 0.345-9.418 1.068-13.802 2.151l0.552-0.115v184.504c3.759 0.058 8.194 0.092 12.638 0.092 240.536 0 458.32-97.414 616.052-254.942l-0.009 0.009c198.773-191.384 286.695-445.71 273.948-652.38zM478.435-70.264c-47.404 270.636-139.65 362.888-416.406 415.891v178.391c285.671 18.861 605.748-252.014 597.335-594.282zM182.064-72.808c-67.080 1.875-120.744 56.701-120.744 124.061 0 68.542 55.564 124.106 124.106 124.106s124.106-55.564 124.106-124.106c0-1.329-0.021-2.654-0.062-3.974l0.005 0.193c-3.881-67.23-59.348-120.28-127.206-120.28-0.072 0-0.144 0-0.217 0h0.011z" />
<glyph unicode="&#xe939;" glyph-name="onsite" horiz-adv-x="1135" d="M952.638 164.138v0c-25.839 16.429-56.458 35.908-87.619 55.812-13.235 8.448-26.594 17.020-39.52 25.303-34.493 22.109-70.16 44.974-105.511 67.028-7.298 4.549-16.107 7.344-25.549 7.602l-0.070 0.002c-66.554 0.33-132.442 0.33-196.153 0.33h-7.246c-37.439 0-76.156 0-114.227 0.055-0.756-0.019-1.646-0.030-2.539-0.030-22.965 0-44.254 7.177-61.746 19.41l0.349-0.231c-17.059 12.709-29.405 30.913-34.45 51.956l-0.126 0.621c-2.060 8.166-3.242 17.541-3.242 27.192 0 0.099 0 0.198 0 0.297v-0.015c-0.33 106.253-0.337 214.017-0.034 320.319-0.012 0.594-0.019 1.293-0.019 1.994 0 23.393 7.844 44.954 21.045 62.195l-0.181-0.246c13.718 17.013 33.028 29.033 55.103 33.273l0.585 0.094c6.313 1.112 13.582 1.748 21.001 1.751h0.003c1.332 0 2.679 0 4.004-0.062h32.714c48.545 0 97.86-0.048 145.561-0.103h2.308c47.975-0.048 97.578-0.096 146.399-0.096 108.272 0 191.524 0.24 269.926 0.783h0.824c0.561 0.011 1.223 0.017 1.886 0.017 28.162 0 53.677-11.335 72.232-29.691l-0.009 0.009c17.569-18.29 28.389-43.179 28.389-70.594 0-1.195-0.021-2.386-0.061-3.571l0.005 0.172c-1.683-113.403-1.655-214.704 0.089-309.693 0.061-1.353 0.096-2.939 0.096-4.534 0-28.483-11.124-54.368-29.265-73.547l0.047 0.050c-16.726-17.030-39.995-27.585-65.73-27.585-0.2 0-0.401 0.001-0.601 0.002h0.031c-2.287 0-4.622 0.082-6.93 0.24h-1.93c-6.573 0-13.235-0.316-19.808-0.948v-155.561zM679.12 781.896c-2.157-3.922-4.21-7.459-6.024-10.577-2.954-4.713-5.936-10.279-8.555-16.045l-0.374-0.92c-13.888-33.394-27.315-67.028-38.614-95.532-2.465-8.113-9.733-13.975-18.418-14.306l-0.037-0.001c-30.791-2.521-54.342-4.773-76.355-7.315-11.264-1.298-22.666-3.235-33.655-5.11-4.931-0.838-10.028-1.71-15.062-2.514l-1.236-5.817c5.907-7.505 11.789-14.184 18.012-20.527l-0.038 0.039c22.082-20.337 44.857-40.688 66.884-60.366l7.796-6.964c5.169-4.043 8.461-10.28 8.461-17.286 0-2.221-0.331-4.366-0.946-6.386l0.041 0.155c-7.397-32.453-14.424-65.503-20.955-98.217-1.135-6.206-1.944-13.561-2.249-21.046l-0.010-0.322c-0.268-4.183-0.543-8.503-0.975-13.366 4.066 1.841 7.768 3.434 11.031 4.808 6.378 2.478 11.755 5.102 16.882 8.107l-0.549-0.297 7.912 4.89h0.041c22.109 13.668 44.974 27.796 66.589 42.961 6.097 5.336 14.133 8.59 22.93 8.59 8.577 0 16.432-3.094 22.508-8.228l-0.052 0.043c20.399-14.108 42.075-27.096 63.044-39.665l0.076-0.048q6.010-3.599 12.013-7.212c4.558-2.637 9.964-5.244 15.566-7.462l0.856-0.299c3.29-1.374 7.013-2.94 11.127-4.808-0.433 4.643-0.687 8.764-0.968 12.741-0.305 7.46-1.126 14.5-2.437 21.365l0.143-0.898c-6.868 32.281-14.424 64.343-21.718 95.339-0.855 2.577-1.348 5.543-1.348 8.624 0 8.878 4.095 16.8 10.499 21.98l0.053 0.042c25.914 22.83 51.279 46.663 73.017 67.214 4.091 4.109 7.858 8.547 11.256 13.269l0.221 0.323c1.964 2.589 4.004 5.268 6.312 8.125-2.871 0.92-5.399 1.854-7.631 2.679-3.249 1.428-7.030 2.549-10.975 3.179l-0.268 0.035-2.239 0.234c-33.758 3.503-68.683 7.116-103.066 9.65-0.033 0-0.072 0-0.112 0-11.429 0-21.096 7.545-24.292 17.925l-0.048 0.18c-12.645 31.436-25.791 63.031-39.088 93.918-2.819 5.946-5.776 11.003-9.107 15.779l0.233-0.352c-1.82 2.871-3.929 6.099-6.099 9.691zM682.767 264.044q-150.932-0.687-301.877-0.041c-0.783-0.012-1.708-0.018-2.634-0.018-13.924 0-27.495 1.508-40.56 4.369l1.249-0.229c-67.838 15.202-117.773 74.909-117.773 146.28 0 0.764 0.006 1.526 0.017 2.288l-0.001-0.115c-0.453 64.83-0.089 129.688-0.089 196.572h0.048c-23.964 0-46.375 0.268-68.78-0.055-0.312 0.004-0.68 0.006-1.049 0.006-51.795 0-93.849-41.702-94.42-93.361v-2.719q-0.446-135.059 0-270.097c-0.018-0.681-0.028-1.483-0.028-2.288 0-50.705 40.463-91.959 90.86-93.235l0.118-0.002h3.146c9.101-0.227 18.215 0 29.204 0v-161.845c6.182 4.691 10.021 7.555 13.737 10.536 59.363 47.295 118.499 94.817 178.254 141.611 6.838 5.163 15.403 8.376 24.704 8.68l0.070 0.002c76.348 0.687 152.704 0.206 229.052 0.453 53.326 0.172 92.139 32.281 99.591 81.864 0.549 3.654 0.749 9.87-1.174 10.989-13.276 7.782-23.778 20.44-41.663 20.358z" />
<glyph unicode="&#xe93a;" glyph-name="giphy" horiz-adv-x="796" d="M0-128v1024h569.179v-113.828h113.828v-113.828h113.387v-796.343zM682.978-14.171v569.135h-227.672v227.23h-341.463v-796.343z" />
<glyph unicode="&#xf002;" glyph-name="search" d="M1010 10.6c18.6-18.799 18.6-49.199-0.199-68l-56.602-56.6c-18.6-18.801-49-18.801-67.799 0l-199.4 199.4c-9 9-14 21.199-14 34v32.6c-70.6-55.199-159.4-88-256-88-229.8 0-416 186.199-416 416s186.199 416 416 416 416-186.199 416-416c0-96.6-32.801-185.4-88-256h32.6c12.801 0 25-5 34-14zM416 224c141.6 0 256 114.6 256 256 0 141.6-114.6 256-256 256-141.6 0-256-114.6-256-256 0-141.6 114.6-256 256-256z" />
<glyph unicode="&#xf004;" glyph-name="heart" d="M924.6 770.8c125.6-107.201 132.201-299.602 19.6-415.8l-387-399.6c-25-25.801-65.6-25.801-90.6 0l-387 399.6c-112.4 116.199-105.799 308.6 19.801 415.8 109.6 93.398 272.798 76.6 373.2-27.201l39.4-40.6 39.4 40.6c100.6 103.801 263.6 120.6 373.2 27.201z" />
<glyph unicode="&#xf005;" glyph-name="star" horiz-adv-x="1152" d="M518.6 860.4c23.6 47.799 91.4 47.199 114.801 0l130.6-264.8 292.2-42.6c52.4-7.6 73.4-72.199 35.4-109.199l-211.4-206 50-291c9-52.602-46.398-91.801-92.799-67.4l-261.4 137.4-261.4-137.4c-46.4-24.6-101.799 14.799-92.799 67.4l50 291-211.4 206c-38 37-17 101.6 35.4 109.199l292.2 42.6z" />
<glyph unicode="&#xf007;" glyph-name="user" horiz-adv-x="896" d="M448 384c-141.4 0-256 114.6-256 256s114.6 256 256 256 256-114.6 256-256-114.6-256-256-256zM627.2 320c148.4 0 268.8-120.4 268.8-268.8v-83.199c0-53-43-96-96-96h-704c-53 0-96 43-96 96v83.199c0 148.4 120.4 268.8 268.8 268.8h33.398c44.602-20.4 93.801-32 145.801-32s101.4 11.6 145.801 32h33.398z" />
<glyph unicode="&#xf009;" glyph-name="th-large" d="M592 832h384c26.51 0 48-21.49 48-48v-320c0-26.51-21.49-48-48-48h-384c-26.51 0-48 21.49-48 48v320c0 26.51 21.49 48 48 48zM432 832c26.51 0 48-21.49 48-48v-320c0-26.51-21.49-48-48-48h-384c-26.51 0-48 21.49-48 48v320c0 26.51 21.49 48 48 48h384zM0 304c0 26.51 21.49 48 48 48h384c26.51 0 48-21.49 48-48v-320c0-26.51-21.49-48-48-48h-384c-26.51 0-48 21.49-48 48v320zM592-64c-26.51 0-48 21.49-48 48v320c0 26.51 21.49 48 48 48h384c26.51 0 48-21.49 48-48v-320c0-26.51-21.49-48-48-48h-384z" />
<glyph unicode="&#xf00a;" glyph-name="th" d="M298.666 784v-160c0-26.51-21.49-48-48-48h-202.666c-26.51 0-48 21.49-48 48v160c0 26.51 21.49 48 48 48h202.666c26.51 0 48-21.49 48-48zM661.334 304c0-26.51-21.49-48-48.002-48h-202.666c-26.51 0-48 21.49-48 48v160c0 26.51 21.49 48 48 48h202.668c26.51 0 48-21.49 48-48v-160zM725.334 784c0 26.51 21.49 48 48 48h202.666c26.51 0 48-21.49 48-48v-160c0-26.51-21.49-48-48-48h-202.666c-26.51 0-48 21.49-48 48v160zM661.334 624c0-26.51-21.49-48-48.002-48h-202.666c-26.51 0-48 21.49-48 48v160c0 26.51 21.49 48 48 48h202.668c26.51 0 48-21.49 48-48v-160zM250.666 512c26.51 0 48-21.49 48-48v-160c0-26.51-21.49-48-48-48h-202.666c-26.51 0-48 21.49-48 48v160c0 26.51 21.49 48 48 48h202.666zM0 144c0 26.51 21.49 48 48 48h202.666c26.51 0 48-21.49 48-48v-160c0-26.51-21.49-48-48-48h-202.666c-26.51 0-48 21.49-48 48v160zM773.334 256c-26.51 0-48 21.49-48 48v160c0 26.51 21.49 48 48 48h202.666c26.51 0 48-21.49 48-48v-160c0-26.51-21.49-48-48-48h-202.666zM773.334-64c-26.51 0-48 21.49-48 48v160c0 26.51 21.49 48 48 48h202.666c26.51 0 48-21.49 48-48v-160c0-26.51-21.49-48-48-48h-202.666zM362.666 144c0 26.51 21.49 48 48 48h202.666c26.51 0 48-21.49 48-48v-160c0-26.51-21.49-48-48-48h-202.666c-26.51 0-48 21.49-48 48v160z" />
<glyph unicode="&#xf00b;" glyph-name="th-list" d="M298.666 464v-160c0-26.51-21.49-48-48-48h-202.666c-26.51 0-48 21.49-48 48v160c0 26.51 21.49 48 48 48h202.666c26.51 0 48-21.49 48-48zM0 144c0 26.51 21.49 48 48 48h202.666c26.51 0 48-21.49 48-48v-160c0-26.51-21.49-48-48-48h-202.666c-26.51 0-48 21.49-48 48v160zM250.666 832c26.51 0 48-21.49 48-48v-160c0-26.51-21.49-48-48-48h-202.666c-26.51 0-48 21.49-48 48v160c0 26.51 21.49 48 48 48h202.666zM410.666-64c-26.51 0-48 21.49-48 48v160c0 26.51 21.49 48 48 48h565.334c26.51 0 48-21.49 48-48v-160c0-26.51-21.49-48-48-48h-565.334zM362.666 784c0 26.51 21.49 48 48 48h565.334c26.51 0 48-21.49 48-48v-160c0-26.51-21.49-48-48-48h-565.334c-26.51 0-48 21.49-48 48v160zM410.666 256c-26.51 0-48 21.49-48 48v160c0 26.51 21.49 48 48 48h565.334c26.51 0 48-21.49 48-48v-160c0-26.51-21.49-48-48-48h-565.334z" />
<glyph unicode="&#xf00c;" glyph-name="check" d="M347.796 17.191l-332.8 332.8c-19.994 19.994-19.994 52.412 0 72.408l72.406 72.408c19.994 19.996 52.414 19.996 72.408 0l224.19-224.19 480.19 480.19c19.994 19.994 52.414 19.994 72.408 0l72.406-72.408c19.994-19.994 19.994-52.412 0-72.408l-588.8-588.802c-19.996-19.994-52.414-19.994-72.406 0.002z" />
<glyph unicode="&#xf00d;" glyph-name="times" horiz-adv-x="704" d="M485.44 384l200.14-200.14c24.561-24.58 24.561-64.398 0-88.959l-44.48-44.48c-24.561-24.561-64.4-24.561-88.959 0l-200.14 200.14-200.14-200.14c-24.559-24.561-64.398-24.561-88.959 0l-44.48 44.48c-24.561 24.58-24.561 64.4 0 88.959l200.14 200.14-200.14 200.14c-24.561 24.58-24.561 64.398 0 88.959l44.48 44.48c24.58 24.561 64.4 24.561 88.959 0l200.14-200.14 200.14 200.14c24.58 24.561 64.398 24.561 88.959 0l44.48-44.48c24.561-24.58 24.561-64.4 0-88.959z" />
<glyph unicode="&#xf00e;" glyph-name="search-plus" d="M608 512v-64c0-13.199-10.801-24-24-24h-112v-112c0-13.199-10.801-24-24-24h-64c-13.199 0-24 10.801-24 24v112h-112c-13.199 0-24 10.801-24 24v64c0 13.199 10.801 24 24 24h112v112c0 13.199 10.801 24 24 24h64c13.199 0 24-10.801 24-24v-112h112c13.199 0 24-10.801 24-24zM1010-57.4l-56.6-56.6c-18.801-18.801-49.201-18.801-67.801 0l-199.6 199.4c-9 9-14 21.199-14 34v32.6c-70.6-55.199-159.4-88-256-88-229.8 0-416 186.199-416 416s186.199 416 416 416 416-186.199 416-416c0-96.6-32.801-185.4-88-256h32.6c12.801 0 25-5 34-14l199.4-199.4c18.6-18.799 18.6-49.199 0-68zM688 480c0 150.4-121.6 272-272 272s-272-121.6-272-272 121.6-272 272-272 272 121.6 272 272z" />
<glyph unicode="&#xf010;" glyph-name="search-minus" d="M608 512v-64c0-13.199-10.801-24-24-24h-336c-13.199 0-24 10.801-24 24v64c0 13.199 10.801 24 24 24h336c13.199 0 24-10.801 24-24zM1010-57.4l-56.6-56.6c-18.801-18.801-49.201-18.801-67.801 0l-199.6 199.4c-9 9-14 21.199-14 34v32.6c-70.6-55.199-159.4-88-256-88-229.8 0-416 186.199-416 416s186.199 416 416 416 416-186.199 416-416c0-96.6-32.801-185.4-88-256h32.6c12.801 0 25-5 34-14l199.4-199.4c18.6-18.799 18.6-49.199 0-68zM688 480c0 150.4-121.6 272-272 272s-272-121.6-272-272 121.6-272 272-272 272 121.6 272 272z" />
<glyph unicode="&#xf013;" glyph-name="cog" d="M974.8 264.6c9.799-5.6 14.199-17.199 11.199-28.199-22.199-71.4-60-135.801-109.4-189.201-7.6-8.398-19.799-10.199-29.6-4.6l-85.199 49.201c-36-30.602-77.201-54.4-121.602-70.201v-98.4c0-11.199-7.799-21-18.799-23.398-69.801-15.602-145-16.4-218.4 0-11 2.398-18.801 12.199-18.801 23.398v98.4c-44.6 15.6-85.799 39.4-121.6 70.201l-85.199-49.201c-9.6-5.6-22-3.6-29.6 4.6-49.4 53.602-87.201 118-109.4 189.201-3.201 10.799 1.199 22.4 11 28l85.199 49.199c-8.6 46.4-8.6 94 0 140.4l-85.199 49.199c-9.801 5.602-14.4 17.201-11 28 22.199 71.4 60 135.801 109.4 189.201 7.6 8.4 19.799 10.199 29.6 4.6l85-49.199c36 30.6 77.199 54.398 121.6 70.199v98.4c0 11.199 7.801 21 18.801 23.4 69.799 15.6 145 16.398 218.398 0 11-2.4 18.801-12.201 18.801-23.4v-98.201c44.6-15.6 85.801-39.398 121.6-70.199l85.201 49.199c9.6 5.602 22 3.602 29.6-4.6 49.4-53.6 87.199-118 109.4-189.199 3.199-10.801-1.201-22.4-11-28l-85.201-49.201c8.6-46.398 8.6-94 0-140.398zM512 224c88.199 0 160 71.801 160 160s-71.801 160-160 160-160-71.801-160-160 71.801-160 160-160z" />
<glyph unicode="&#xf015;" glyph-name="home" horiz-adv-x="1152" d="M560.74 599.48c3.697 2.98 10.551 5.398 15.299 5.398 4.75 0 11.604-2.418 15.301-5.398l368.66-303.48v-328c0-17.664-14.336-32-32-32l-224.042 0.619c-17.664 0-32 14.336-32 32 0 0.029 0 0.074 0.002 0.102v191.279c0 17.664-14.338 32-32 32h-128c-17.664 0-32-14.336-32-32v-191.42c0-17.576-14.266-31.912-31.842-32l-224.12-0.58c-17.664 0-32 14.336-32 32v327.78zM1143.2 393.060c4.891-3.977 8.859-12.318 8.859-18.621 0-4.746-2.445-11.572-5.459-15.24l-51-62c-3.973-4.807-12.262-8.709-18.498-8.709-4.771 0-11.627 2.469-15.301 5.51l-470.46 387.48c-3.697 2.98-10.551 5.398-15.301 5.398-4.748 0-11.602-2.418-15.299-5.398l-470.44-387.48c-3.674-3.033-10.521-5.496-15.285-5.496-6.256 0-14.561 3.924-18.535 8.756l-51 62c-3.041 3.676-5.51 10.531-5.51 15.301 0 6.238 3.902 14.525 8.709 18.5l506.26 416.94c14.672 12.072 42 21.871 61 21.871 19.002 0 46.328-9.799 61-21.871l179.061-147.32v145.221c0 13.248 10.752 24 24 24h112c13.248 0 24-10.752 24-24v-277.020z" />
<glyph unicode="&#xf019;" glyph-name="download" d="M432 896h160c26.6 0 48-21.4 48-48v-336h175.4c35.6 0 53.4-43 28.199-68.199l-304.2-304.4c-15-15-39.6-15-54.6 0l-304.602 304.4c-25.199 25.199-7.398 68.199 28.201 68.199h175.6v336c0 26.6 21.4 48 48 48zM1024 144v-224c0-26.6-21.4-48-48-48h-928c-26.6 0-48 21.4-48 48v224c0 26.6 21.4 48 48 48h293.4l98-98c40.199-40.199 105-40.199 145.199 0l98 98h293.4c26.6 0 48-21.4 48-48zM776-32c0 22-18 40-40 40s-40-18-40-40 18-40 40-40 40 18 40 40zM904-32c0 22-18 40-40 40s-40-18-40-40 18-40 40-40 40 18 40 40z" />
<glyph unicode="&#xf01e;" glyph-name="redo" d="M1000.66 896c13.248 0 24-10.752 24-24v-400.68c0-13.248-10.752-24-24-24h-400.66c-13.248 0-24 10.752-24 24v94.848c0 13.248 10.752 24 24 24 0.314 0 0.826-0.014 1.141-0.027l203.058-9.74c-57.744 85.922-188.629 155.656-292.152 155.656-194.303 0-352-157.697-352-352 0-194.305 157.697-352 352-352 73.309 0 177.475 39.301 232.514 87.723 3.744 3.273 10.818 5.928 15.791 5.928 5.486 0 13.088-3.148 16.969-7.027l68-68c3.883-3.881 7.035-11.486 7.035-16.977 0-5.922-3.582-13.934-7.996-17.883-77.941-70.557-226.528-127.82-331.662-127.82h-0.697c-273.8 0-495.8 221.86-496 495.62-0.199 273.32 222.68 496.38 496 496.38h0.545c126.449 0 295.478-78.248 377.294-174.66l-8 165.52c-0.016 0.314-0.027 0.826-0.027 1.141 0 13.248 10.752 24 24 24h94.848z" />
<glyph unicode="&#xf021;" glyph-name="sync" d="M881.3 870.86c-0.016 0.314-0.027 0.826-0.027 1.141 0 13.24 10.746 23.992 23.986 24h94.74c13.248 0 24-10.752 24-24v-400.7c0-13.248-10.752-24-24-24h-400.44c-13.248 0-24 10.752-24 24v94.846c0 13.248 10.752 24 24 24 0.314 0 0.824-0.012 1.139-0.027l202.92-9.719c-57.717 85.85-188.52 155.525-291.968 155.525-152.967 0-306.198-120.693-342.032-269.406-2.395-10.211-12.85-18.508-23.34-18.52h-98.1c-13.248 0-24 10.752-24 24 0 1.213 0.18 3.166 0.4 4.359 43.24 229.8 244.88 403.64 487.080 403.64h0.568c126.406 0 295.334-78.256 377.072-174.68zM511.66 32c152.994 0 306.288 120.727 342.060 269.48 2.395 10.211 12.85 18.508 23.34 18.52h98.1c13.248 0 24-10.752 24-24 0-1.213-0.18-3.166-0.4-4.359-43.24-229.8-244.878-403.64-487.1-403.64h-0.469c-126.258 0-295.060 78.104-376.792 174.34l8.299-165.141c0.018-0.33 0.031-0.867 0.031-1.199 0-13.248-10.752-24-24-24h-94.73c-13.248 0-24 10.752-24 24v400.66c0 13.248 10.752 24 24 24h400.4c13.248 0 24-10.752 24-24v-94.828c0-13.248-10.752-24-24-24-0.314 0-0.826 0.014-1.141 0.027l-203.6 9.74c57.6-85.891 188.281-155.6 291.7-155.6h0.301z" />
<glyph unicode="&#xf026;" glyph-name="volume-off" horiz-adv-x="512" d="M430 754c30 30 82 8.939 82-34v-672c0-42.939-52-64-82-34l-177.881 178h-204.12c-26.496 0-48 21.504-48 48v288c0 26.496 21.504 48 48 48h204z" />
<glyph unicode="&#xf027;" glyph-name="volume-down" horiz-adv-x="768" d="M430.060 751.92c30.020 30 81.939 8.98 81.939-33.959v-671.922c0-42.879-51.881-64-81.939-33.939l-177.941 177.9h-204.12c-26.52 0-48 21.5-48 48v288c0 26.52 21.48 48 48 48h204.12zM676.46 535.76c56.479-31.1 91.559-89.98 91.559-153.74s-35.080-122.66-91.539-153.76c-23.121-12.699-52.361-4.42-65.221 18.9-12.779 23.221-4.32 52.4 18.9 65.221 25.801 14.18 41.84 40.859 41.84 69.619s-16.039 55.439-41.859 69.641c-23.221 12.82-31.68 42-18.9 65.219 12.84 23.221 42.061 31.561 65.221 18.9z" />
<glyph unicode="&#xf028;" glyph-name="volume-up" horiz-adv-x="1152" d="M430.060 753.9c30.020 30.020 81.939 8.98 81.939-33.939v-671.922c0-42.879-51.881-64-81.939-33.939l-177.941 177.9h-204.12c-26.52 0-48 21.5-48 48v288c0 26.52 21.48 48 48 48h204.12zM896.7 856.060c159.84-104.92 255.3-281.4 255.3-472.060s-95.461-367.16-255.3-472.080c-23.16-15.221-52.939-7.52-67.020 13.9-14.68 22.32-8.439 52.359 13.9 67 132.539 86.98 211.64 233.2 211.64 391.16s-79.102 304.18-211.64 391.16c-22.34 14.66-28.58 44.68-13.9 67.020 14.66 22.379 44.68 28.561 67.020 13.9zM960 384c0-127.080-64.119-243.88-171.539-312.48-24-15.359-53.221-5.799-66.24 14.92-14.182 22.58-7.561 52.441 14.818 66.721 79.5 50.779 126.961 137.061 126.961 230.84s-47.461 180.061-126.961 230.84c-22.379 14.301-29 44.16-14.818 66.721 14.18 22.559 43.859 29.199 66.24 14.92 107.42-68.6 171.539-185.42 171.539-312.48zM676.46 537.74c56.479-31.080 91.559-89.961 91.559-153.721s-35.080-122.66-91.539-153.76c-23.121-12.699-52.361-4.42-65.221 18.9-12.779 23.221-4.32 52.4 18.9 65.221 25.801 14.18 41.84 40.859 41.84 69.619 0 28.74-16.039 55.439-41.859 69.619-23.221 12.82-31.68 42-18.9 65.221 12.84 23.221 42.061 31.561 65.221 18.9z" />
<glyph unicode="&#xf048;" glyph-name="step-backward" horiz-adv-x="896" d="M128-40v848c0 13.199 10.801 24 24 24h96c13.199 0 24-10.801 24-24v-352.8l391 362c41.199 34.201 105 5.602 105-49.199v-768c0-54.801-63.801-83.4-105-49.199l-391 359.798v-350.6c0-13.199-10.801-24-24-24h-96c-13.199 0-24 10.801-24 24z" />
<glyph unicode="&#xf049;" glyph-name="fast-backward" d="M0 24v720c0 13.199 10.801 24 24 24h80c13.199 0 24-10.801 24-24v-303.8l343 313c41.199 34.201 105 5.602 105-49.199v-263.8l343 313c41.199 34.201 105 5.602 105-49.199v-640c0-54.801-63.801-83.4-105-49.199l-343 310.6v-261.4c0-54.801-63.801-83.4-105-49.199l-343 310.6v-301.4c0-13.199-10.801-24-24-24h-80c-13.199 0-24 10.801-24 24z" />
<glyph unicode="&#xf04a;" glyph-name="backward" d="M23 334.8c-30.6 25.6-30.6 72.799 0 98.398l384 320c41.199 34.4 105 5.602 105-49.199v-640c0-54.801-63.801-83.6-105-49.199zM535 334.8c-30.6 25.6-30.6 72.799 0 98.398l384 320c41.199 34.4 105 5.602 105-49.199v-640c0-54.801-63.801-83.6-105-49.199z" />
<glyph unicode="&#xf04b;" glyph-name="play1" horiz-adv-x="896" d="M848.8 466.6c63-37 62.799-128.199 0-165.199l-704-416c-63.4-37.6-144.801 7.6-144.801 82.6v832.2c0 83.602 87.6 116.4 144.801 82.602z" />
<glyph unicode="&#xf04c;" glyph-name="pause" horiz-adv-x="896" d="M288-62h-192c-53 0-96 43-96 96v704c0 53 43 96 96 96h192c53 0 96-43 96-96v-704c0-53-43-96-96-96zM896 34c0-53-43-96-96-96h-192c-53 0-96 43-96 96v704c0 53 43 96 96 96h192c53 0 96-43 96-96v-704z" />
<glyph unicode="&#xf04d;" glyph-name="stop" horiz-adv-x="896" d="M800 832c53 0 96-43 96-96v-704c0-53-43-96-96-96h-704c-53 0-96 43-96 96v704c0 53 43 96 96 96h704z" />
<glyph unicode="&#xf04e;" glyph-name="forward" d="M1001 433.2c30.6-25.6 30.6-72.799 0-98.398l-384-320c-41.199-34.4-105-5.602-105 49.199v640c0 54.801 63.801 83.4 105 49.199zM489 433.2c30.6-25.6 30.6-72.799 0-98.398l-384-320c-41.199-34.4-105-5.602-105 49.199v640c0 54.801 63.801 83.4 105 49.199z" />
<glyph unicode="&#xf050;" glyph-name="fast-forward" d="M1024 744v-720c0-13.199-10.801-24-24-24h-80c-13.199 0-24 10.801-24 24v303.8l-343-313c-41.199-34.4-105-5.602-105 49.199v263.8l-343-313c-41.199-34.4-105-5.602-105 49.199v640c0 54.801 63.801 83.4 105 49.199l343-310.798v261.6c0 54.801 63.801 83.4 105 49.199l343-310.798v301.6c0 13.199 10.801 24 24 24h80c13.199 0 24-10.801 24-24z" />
<glyph unicode="&#xf051;" glyph-name="step-forward" horiz-adv-x="896" d="M768 808v-848c0-13.199-10.801-24-24-24h-96c-13.199 0-24 10.801-24 24v352.8l-391-362c-41.199-34.201-105-5.602-105 49.199v768c0 54.801 63.801 83.4 105 49.199l391-359.798v350.6c0 13.199 10.801 24 24 24h96c13.199 0 24-10.801 24-24z" />
<glyph unicode="&#xf053;" glyph-name="chevron-left" horiz-adv-x="640" d="M69.039 417.94l388.702 388.68c18.74 18.74 49.141 18.74 67.879 0l45.342-45.34c18.719-18.719 18.738-49.039 0.078-67.799l-308.058-309.48 308.040-309.5c18.68-18.76 18.641-49.080-0.080-67.801l-45.34-45.34c-18.74-18.74-49.139-18.74-67.879 0l-388.682 388.702c-18.738 18.74-18.738 49.139 0 67.879z" />
<glyph unicode="&#xf054;" glyph-name="chevron-right" horiz-adv-x="640" d="M570.952 350.058l-388.688-388.688c-18.746-18.744-49.137-18.744-67.881 0l-45.334 45.334c-18.715 18.715-18.75 49.045-0.080 67.803l308.042 309.492-308.042 309.49c-18.67 18.758-18.635 49.088 0.080 67.803l45.334 45.334c18.746 18.744 49.137 18.744 67.881 0l388.686-388.688c18.746-18.744 18.746-49.135 0.002-67.881z" />
<glyph unicode="&#xf055;" glyph-name="plus-circle" d="M512 880c274 0 496-222 496-496s-222-496-496-496-496 222-496 496 222 496 496 496zM800 328v112c0 13.199-10.801 24-24 24h-184v184c0 13.199-10.801 24-24 24h-112c-13.199 0-24-10.801-24-24v-184h-184c-13.199 0-24-10.801-24-24v-112c0-13.199 10.801-24 24-24h184v-184c0-13.199 10.801-24 24-24h112c13.199 0 24 10.801 24 24v184h184c13.199 0 24 10.801 24 24z" />
<glyph unicode="&#xf056;" glyph-name="minus-circle" d="M512 880c274 0 496-222 496-496s-222-496-496-496-496 222-496 496 222 496 496 496zM248 304h528c13.199 0 24 10.801 24 24v112c0 13.199-10.801 24-24 24h-528c-13.199 0-24-10.801-24-24v-112c0-13.199 10.801-24 24-24z" />
<glyph unicode="&#xf057;" glyph-name="times-circle" d="M512 880c274 0 496-222 496-496s-222-496-496-496-496 222-496 496 222 496 496 496zM755.2 253.8l-131.199 130.199 131.4 130c9.4 9.4 9.4 24.6 0 34l-79.201 79.199c-9.398 9.4-24.6 9.4-34 0l-130.199-131.199-130 131.4c-9.4 9.4-24.6 9.4-34 0l-79.199-79.201c-9.4-9.398-9.4-24.6 0-34l131.199-130.199-131.199-130c-9.4-9.4-9.4-24.6 0-34l79-79.199c9.398-9.4 24.6-9.4 34 0l130.199 131.199 130-131.199c9.4-9.4 24.6-9.4 34 0l79.199 79c9.4 9.398 9.4 24.6 0 34z" />
<glyph unicode="&#xf058;" glyph-name="check-circle" d="M1008 384c0-273.934-222.066-496-496-496s-496 222.066-496 496 222.066 496 496 496 496-222.066 496-496zM454.628 121.371l368 368c12.494 12.496 12.494 32.76 0 45.256l-45.256 45.254c-12.494 12.498-32.758 12.498-45.256 0l-300.118-300.118-140.117 140.119c-12.496 12.496-32.76 12.496-45.256 0l-45.256-45.254c-12.494-12.496-12.494-32.76 0-45.256l208-208c12.498-12.496 32.76-12.496 45.258-0.002z" />
<glyph unicode="&#xf059;" glyph-name="question-circle" d="M1008 384c0-273.994-222.086-496-496-496s-496 222.006-496 496c0 273.834 222.086 496 496 496s496-222.166 496-496zM525.31 716c-108.994 0-178.51-45.914-233.098-127.516-7.072-10.572-4.707-24.83 5.43-32.516l69.396-52.621c10.41-7.895 25.242-6.016 33.33 4.244 35.729 45.316 60.227 71.594 114.607 71.594 40.857 0 91.395-26.295 91.395-65.916 0-29.951-24.725-45.334-65.066-67.951-47.049-26.375-109.305-59.201-109.305-141.318v-8c0-13.254 10.746-24 24-24h112c13.254 0 24 10.746 24 24v2.666c0 56.924 166.371 59.295 166.371 213.334 0 116.004-120.328 204-233.060 204zM512 220c-50.73 0-92-41.27-92-92s41.27-92 92-92 92 41.271 92 92c0 50.73-41.27 92-92 92z" />
<glyph unicode="&#xf05a;" glyph-name="info-circle" d="M512 880c273.914 0 496-222.166 496-496 0-273.994-222.086-496-496-496s-496 222.006-496 496c0 273.834 222.086 496 496 496zM512 660c-46.393 0-84-37.607-84-84s37.607-84 84-84 84 37.607 84 84-37.607 84-84 84zM624 152v48c0 13.254-10.746 24-24 24h-24v200c0 13.254-10.746 24-24 24h-128c-13.254 0-24-10.746-24-24v-48c0-13.254 10.746-24 24-24h24v-128h-24c-13.254 0-24-10.746-24-24v-48c0-13.254 10.746-24 24-24h176c13.254 0 24 10.746 24 24z" />
<glyph unicode="&#xf060;" glyph-name="arrow-left" horiz-adv-x="896" d="M515 5.801l-44.4-44.4c-18.799-18.801-49.199-18.801-67.799 0l-388.8 388.6c-18.801 18.801-18.801 49.199 0 67.801l388.8 388.798c18.799 18.801 49.199 18.801 67.799 0l44.4-44.4c19-19 18.6-50-0.801-68.6l-241-229.6h574.8c26.6 0 48-21.4 48-48v-64c0-26.6-21.4-48-48-48h-574.8l241-229.6c19.602-18.6 20-49.6 0.801-68.6z" />
<glyph unicode="&#xf061;" glyph-name="arrow-right" horiz-adv-x="896" d="M381 762.2l44.4 44.4c18.799 18.801 49.199 18.801 67.799 0l388.8-388.6c18.801-18.801 18.801-49.199 0-67.801l-388.8-388.798c-18.799-18.801-49.199-18.801-67.799 0l-44.4 44.4c-19 19-18.6 50 0.801 68.6l241 229.6h-574.8c-26.6 0-48 21.4-48 48v64c0 26.6 21.4 48 48 48h574.8l-241 229.6c-19.602 18.6-20 49.6-0.801 68.6z" />
<glyph unicode="&#xf062;" glyph-name="arrow-up" horiz-adv-x="896" d="M69.801 317l-44.4 44.4c-18.801 18.799-18.801 49.199 0 67.799l388.6 388.8c18.801 18.801 49.199 18.801 67.801 0l388.6-388.6c18.799-18.801 18.799-49.201 0-67.801l-44.4-44.4c-19-19-50-18.6-68.6 0.801l-229.4 240.8v-574.8c0-26.6-21.4-48-48-48h-64c-26.6 0-48 21.4-48 48v574.8l-229.6-241c-18.6-19.602-49.6-20-68.6-0.801z" />
<glyph unicode="&#xf063;" glyph-name="arrow-down" horiz-adv-x="896" d="M826.2 451l44.4-44.4c18.801-18.799 18.801-49.199 0-67.799l-388.6-388.8c-18.801-18.801-49.199-18.801-67.801 0l-388.798 388.8c-18.801 18.799-18.801 49.199 0 67.799l44.4 44.4c19 19 50 18.6 68.6-0.801l229.6-241v574.8c0 26.6 21.4 48 48 48h64c26.6 0 48-21.4 48-48v-574.8l229.6 241c18.6 19.602 49.6 20 68.6 0.801z" />
<glyph unicode="&#xf064;" glyph-name="share1" d="M1007.382 516.328c22.172-19.15 22.141-53.531 0-72.656l-352.010-304c-30.773-26.578-79.373-5.072-79.373 36.328v175.83c-310.166-4.463-443.868-81.459-353.18-371.484 10.068-32.195-28.848-57.123-56.154-37.262-87.504 63.646-166.666 185.383-166.666 308.264 0 304.454 254.742 368.838 576 372.516v160.107c0 41.336 48.562 62.938 79.373 36.328z" />
<glyph unicode="&#xf065;" glyph-name="expand" horiz-adv-x="896" d="M0 536v248c0 26.6 21.4 48 48 48h248c13.199 0 24-10.801 24-24v-80c0-13.199-10.801-24-24-24h-168v-168c0-13.199-10.801-24-24-24h-80c-13.199 0-24 10.801-24 24zM576 808c0 13.199 10.801 24 24 24h248c26.6 0 48-21.4 48-48v-248c0-13.199-10.801-24-24-24h-80c-13.199 0-24 10.801-24 24v168h-168c-13.199 0-24 10.801-24 24v80zM872 256c13.199 0 24-10.801 24-24v-248c0-26.6-21.4-48-48-48h-248c-13.199 0-24 10.801-24 24v80c0 13.199 10.801 24 24 24h168v168c0 13.199 10.801 24 24 24h80zM320-40c0-13.199-10.801-24-24-24h-248c-26.6 0-48 21.4-48 48v248c0 13.199 10.801 24 24 24h80c13.199 0 24-10.801 24-24v-168h168c13.199 0 24-10.801 24-24v-80z" />
<glyph unicode="&#xf066;" glyph-name="compress" horiz-adv-x="896" d="M872 512h-248c-26.6 0-48 21.4-48 48v248c0 13.199 10.801 24 24 24h80c13.199 0 24-10.801 24-24v-168h168c13.199 0 24-10.801 24-24v-80c0-13.199-10.801-24-24-24zM320 560c0-26.6-21.4-48-48-48h-248c-13.199 0-24 10.801-24 24v80c0 13.199 10.801 24 24 24h168v168c0 13.199 10.801 24 24 24h80c13.199 0 24-10.801 24-24v-248zM320-40c0-13.199-10.801-24-24-24h-80c-13.199 0-24 10.801-24 24v168h-168c-13.199 0-24 10.801-24 24v80c0 13.199 10.801 24 24 24h248c26.6 0 48-21.4 48-48v-248zM704-40c0-13.199-10.801-24-24-24h-80c-13.199 0-24 10.801-24 24v248c0 26.6 21.4 48 48 48h248c13.199 0 24-10.801 24-24v-80c0-13.199-10.801-24-24-24h-168v-168z" />
<glyph unicode="&#xf067;" glyph-name="plus" horiz-adv-x="896" d="M832 480c35.34 0 64-28.66 64-64v-64c0-35.34-28.66-64-64-64h-288v-288c0-35.34-28.66-64-64-64h-64c-35.34 0-64 28.66-64 64v288h-288c-35.34 0-64 28.66-64 64v64c0 35.34 28.66 64 64 64h288v288c0 35.34 28.66 64 64 64h64c35.34 0 64-28.66 64-64v-288h288z" />
<glyph unicode="&#xf068;" glyph-name="minus" horiz-adv-x="896" d="M832 480c35.34 0 64-28.66 64-64v-64c0-35.34-28.66-64-64-64h-768c-35.34 0-64 28.66-64 64v64c0 35.34 28.66 64 64 64h768z" />
<glyph unicode="&#xf06a;" glyph-name="exclamation-circle" d="M1008 384c0-273.994-222.086-496-496-496s-496 222.006-496 496c0 273.834 222.086 496 496 496s496-222.166 496-496zM512 284c-50.811 0-92-41.189-92-92s41.189-92 92-92 92 41.189 92 92-41.189 92-92 92zM424.654 614.692l14.836-272c0.693-12.727 11.217-22.691 23.963-22.691h97.094c12.746 0 23.27 9.965 23.963 22.691l14.836 272c0.75 13.748-10.195 25.309-23.963 25.309h-126.768c-13.768 0-24.711-11.561-23.961-25.309z" />
<glyph unicode="&#xf06e;" glyph-name="eye" horiz-adv-x="1152" d="M1145.040 413.2c3.842-7.598 6.959-20.676 6.959-29.189s-3.117-21.592-6.959-29.189c-108.398-211.542-323.18-354.82-569.040-354.82s-460.58 143.18-569.040 354.8c-3.842 7.598-6.959 20.676-6.959 29.189s3.117 21.592 6.959 29.189c108.398 211.542 323.18 354.82 569.040 354.82s460.58-143.18 569.040-354.8zM576 96h0.141c158.898 0 287.86 128.961 287.86 287.86v0.141c0 158.977-129.023 288-288 288s-288-129.023-288-288 129.023-288 288-288zM576 576h0.451c105.74 0 191.561-85.818 191.561-191.559s-85.82-191.561-191.561-191.561c-105.742 0-191.561 85.818-191.561 191.561 0 14.096 2.996 36.574 6.689 50.178 13.967-10.277 39.379-18.619 56.721-18.619 52.826 0 95.699 42.873 95.699 95.699 0 17.342-8.342 42.754-18.619 56.721 13.688 3.984 36.365 7.381 50.619 7.58z" />
<glyph unicode="&#xf070;" glyph-name="eye-slash" horiz-adv-x="1280" d="M640 96c14.482 0.135 37.779 2.473 52 5.221l103.779-80.301c-50.039-12.92-101.959-20.92-155.779-20.92-245.86 0-460.58 143.18-569.040 354.8-3.842 7.598-6.959 20.676-6.959 29.189s3.117 21.592 6.959 29.189c20.479 40 45.859 76.58 73.439 111.18l209.798-162.139c11.301-148.801 134.102-266.22 285.8-266.22zM1267.64-20.199c6.826-5.305 12.367-16.625 12.367-25.271 0-6.055-3.014-14.848-6.729-19.629l-39.279-50.541c-5.305-6.824-16.623-12.365-25.268-12.365-6.063 0-14.867 3.023-19.652 6.746l-1176.72 909.458c-6.82 5.305-12.355 16.621-12.355 25.262 0 6.059 3.018 14.855 6.736 19.639l39.26 50.541c5.305 6.824 16.623 12.365 25.268 12.365 6.063 0 14.867-3.023 19.652-6.746l254.44-196.66c76.023 41.516 208.022 75.295 294.64 75.4 245.86 0 460.58-143.18 569.040-354.8 3.842-7.598 6.959-20.676 6.959-29.189s-3.117-21.592-6.959-29.189c-33.533-65.352-106.332-156.807-162.5-204.14zM900.2 263.8c17.221 36.641 27.801 76.939 27.801 120.199v0.16c0 158.887-128.953 287.84-287.84 287.84h-0.16c-56.939-0.043-138.609-29.709-182.301-66.221l147.221-113.779c1.453 5.428 2.832 14.387 3.080 20-0.031 17.258-8.373 42.533-18.619 56.42 14.359 4.193 38.156 7.596 53.115 7.596 104.615 0 189.52-84.904 189.52-189.52 0-0.689-0.006-1.807-0.016-2.496-0.225-16.869-4.885-43.498-10.4-59.439z" />
<glyph unicode="&#xf071;" glyph-name="exclamation-triangle" horiz-adv-x="1152" d="M1139.034 15.975c36.916-63.988-9.422-143.975-83.152-143.975h-959.774c-73.873 0-119.998 80.109-83.154 143.975l479.892 832.054c36.934 64.020 129.439 63.902 166.309 0zM576 188c-50.811 0-92-41.189-92-92s41.189-92 92-92 92 41.189 92 92-41.189 92-92 92zM488.654 518.692l14.836-272c0.693-12.727 11.217-22.691 23.963-22.691h97.094c12.746 0 23.27 9.965 23.963 22.691l14.836 272c0.75 13.748-10.195 25.309-23.963 25.309h-126.768c-13.768 0-24.711-11.561-23.961-25.309z" />
<glyph unicode="&#xf073;" glyph-name="calendar-alt" horiz-adv-x="896" d="M0-32v544h896v-544c0-53-43-96-96-96h-704c-53 0-96 43-96 96zM640 360v-80c0-13.199 10.801-24 24-24h80c13.199 0 24 10.801 24 24v80c0 13.199-10.801 24-24 24h-80c-13.199 0-24-10.801-24-24zM640 104v-80c0-13.199 10.801-24 24-24h80c13.199 0 24 10.801 24 24v80c0 13.199-10.801 24-24 24h-80c-13.199 0-24-10.801-24-24zM384 360v-80c0-13.199 10.801-24 24-24h80c13.199 0 24 10.801 24 24v80c0 13.199-10.801 24-24 24h-80c-13.199 0-24-10.801-24-24zM384 104v-80c0-13.199 10.801-24 24-24h80c13.199 0 24 10.801 24 24v80c0 13.199-10.801 24-24 24h-80c-13.199 0-24-10.801-24-24zM128 360v-80c0-13.199 10.801-24 24-24h80c13.199 0 24 10.801 24 24v80c0 13.199-10.801 24-24 24h-80c-13.199 0-24-10.801-24-24zM128 104v-80c0-13.199 10.801-24 24-24h80c13.199 0 24 10.801 24 24v80c0 13.199-10.801 24-24 24h-80c-13.199 0-24-10.801-24-24zM800 768c53 0 96-43 96-96v-96h-896v96c0 53 43 96 96 96h96v96c0 17.6 14.4 32 32 32h64c17.6 0 32-14.4 32-32v-96h256v96c0 17.6 14.4 32 32 32h64c17.6 0 32-14.4 32-32v-96h96z" />
<glyph unicode="&#xf077;" glyph-name="chevron-up" horiz-adv-x="896" d="M481.942 634.952l388.688-388.686c18.744-18.746 18.744-49.137 0-67.881l-45.334-45.334c-18.715-18.715-49.045-18.75-67.803-0.080l-309.492 308.040-309.49-308.042c-18.758-18.67-49.088-18.635-67.803 0.080l-45.334 45.334c-18.744 18.746-18.744 49.137 0 67.881l388.688 388.686c18.744 18.746 49.135 18.746 67.881 0.002z" />
<glyph unicode="&#xf078;" glyph-name="chevron-down" horiz-adv-x="896" d="M414.058 133.049l-388.688 388.688c-18.744 18.746-18.744 49.137 0 67.881l45.334 45.334c18.715 18.715 49.045 18.75 67.803 0.080l309.492-308.042 309.49 308.042c18.758 18.67 49.088 18.635 67.803-0.080l45.334-45.334c18.744-18.746 18.744-49.137 0-67.881l-388.686-388.688c-18.746-18.744-49.137-18.744-67.883 0z" />
<glyph unicode="&#xf081;" glyph-name="twitter-square" d="M800 831.997c53 0 96-43 96-96v-704c0-53-43-96-96-96h-704c-53 0-96 43-96 96v704c0 53 43 96 96 96h704zM702.2 514.397c25.602 18.6 48 41.799 65.801 68-23.6-10.201-49.199-17.6-75.6-20.4 27.199 16.199 47.799 41.801 57.6 72.199-25.199-15-53.6-26-83.199-31.6-24 25.6-58 41.4-95.801 41.4-80 0-146.6-72.199-128-161.199-108.801 5.6-205.8 57.6-270.4 137.199-11.4-19.4-17.799-41.801-17.799-66.199v-0.215c0-38.717 26.162-87.543 58.398-108.986-21.398 0.801-41.799 6.801-59.199 16.6v-1.6c0-63.799 45-116.6 105-128.799-20.801-5.4-39-5.4-59.199-2.4 16.6-52 65-89.801 122.6-91-45-35.201-101.4-56-162.801-56-10.799 0-21 0.4-31.6 1.6 58-37.199 127-58.801 201.4-58.801 241.2 0 373.2 199.801 373.2 373.202 0 5.6 0 11.4-0.4 17z" />
<glyph unicode="&#xf082;" glyph-name="facebook-square" d="M800 831.997c52.992 0 96-43.008 96-96v-704c0-52.992-43.008-96-96-96h-274.5v304.62h115.561l22 143.381h-137.561v93.1c0 39.221 19.221 77.461 80.84 77.461h62.541v122s-56.762 9.68-111.041 9.68c-113.34 0-187.34-68.66-187.34-192.961v-109.279h-126v-143.381h126v-304.62h-274.5c-52.992 0-96 43.008-96 96v704c0 52.992 43.008 96 96 96h704z" />
<glyph unicode="&#xf08c;" glyph-name="linkedin-square" d="M832 831.997c35.199 0 64-29 64-64.6v-766.8c0-35.6-28.801-64.6-64-64.6h-768.2c-35.201 0-63.801 29-63.801 64.6v766.8c0 35.6 28.6 64.6 63.801 64.6h768.2zM270.8 63.997h0.199v427.6h-133v-427.6h132.801zM204.4 549.997c42.6 0 77 34.4 77 77 0 42.4-34.6 77-77 77-42.6 0-77-34.6-77-77s34.4-77 77-77zM768.6 63.997v234.4c0 115.199-25 203.798-159.4 203.798-64.6 0-108-35.398-125.799-69h-1.801v58.4h-127.4v-427.6h132.801v211.6c0 55.801 10.6 109.801 79.801 109.801 68 0 69-63.801 69-113.4v-208h132.799z" />
<glyph unicode="&#xf092;" glyph-name="github-square" d="M800 831.997c53 0 96-43 96-96v-704c0-53-43-96-96-96h-704c-53 0-96 43-96 96v704c0 53 43 96 96 96h704zM554.6 64.596c132 44 221.6 169.801 221.4 316.6 0 183.602-148.801 323-332.4 323s-324-139.398-324-323c0-146.799 92.4-272.398 224.4-316.6 17-3 23 7.4 23 16 0 8.201-0.4 53.4-0.4 81.201 0 0-92.799-20-112.199 39.398 0 0-15.201 38.4-36.801 48.4 0 0-30.199 20.801 2.201 20.4 0 0 32.799-2.6 51-34.199 29-51.201 77.6-36.4 96.6-27.801 3 21.199 11.6 36 21.199 44.6-74 8.201-148.6 19-148.6 146.201 0 36.398 10 54.6 31.199 78-3.6 8.799-14.799 44.199 3.4 90 27.801 8.6 91.4-35.801 91.4-35.801 26.4 7.4 55 11.199 83.199 11.199 28.201 0 56.801-3.799 83.201-11.199 0 0 63.6 44.4 91.4 35.801 18.199-46 6.799-81.4 3.398-90 21.201-23.4 34.201-41.602 34.201-78 0-127.801-78-138-152-146.201 12.199-10.4 22.6-30.199 22.6-61.4 0-44.6-0.4-99.799-0.4-110.6 0-8.6 6.201-19 23-16zM358.4 186.798c-3.801-0.801-7.4 0.799-7.801 3.398-0.4 3 2.201 5.602 6 6.4 3.801 0.4 7.4-1.199 7.801-3.799 0.6-2.602-2-5.201-6-6zM339.4 188.596c0 3-3.6 5.201-7.4 4.801-4 0-7-2.201-7-4.801 0-3 3-5.199 7.4-4.799 4 0 7 2.199 7 4.799zM312 190.798c-0.801-2.602-4.801-3.801-8.199-2.602-3.801 0.801-6.4 3.801-5.602 6.4 0.801 2.6 4.801 3.801 8.201 3 4-1.199 6.6-4.199 5.6-6.799zM287.4 201.597c1.799 1.6 0.799 5.6-1.801 8.201-3 3-6.799 3.398-8.6 1.199-2-1.801-1.199-5.6 1.801-8.199 3-3 6.799-3.4 8.6-1.201zM269.2 219.797c2.201 1.6 2.201 5.199 0 8.199-1.799 3-5.199 4.4-7.398 2.6-2.201-1.4-2.201-4.799 0-7.799 2.199-3 5.6-4.201 7.398-3zM256.2 239.197c1.801 1.4 1.4 4.4-0.799 7-2.201 2-5.201 3-7 1.201-1.801-1.4-1.4-4.4 0.799-7 2.201-2 5.201-3 7-1.201zM242.8 253.997c0.799 1.6-0.4 3.801-3 5.199-2.602 1-4.801 0.4-5.602-0.799-0.799-1.801 0.4-4 3-5.201 2.201-1.398 4.801-1 5.602 0.801z" />
<glyph unicode="&#xf099;" glyph-name="twitter" d="M918.74 592.565c0.65-9.096 0.65-18.195 0.65-27.291 0-277.44-211.166-597.116-597.118-597.116-118.904 0-229.36 34.438-322.274 94.211 16.895-1.947 33.137-2.598 50.68-2.598 98.109 0 188.426 33.137 260.548 89.664-92.264 1.951-169.584 62.377-196.225 145.545 12.996-1.949 25.99-3.248 39.637-3.248 18.842 0 37.686 2.6 55.227 7.146-96.162 19.494-168.285 103.959-168.285 205.968v2.598c27.938-15.594 60.428-25.34 94.861-26.637-56.527 37.686-93.561 102.010-93.561 174.781 0 38.984 10.393 74.721 28.588 105.908 103.309-127.35 258.6-210.516 432.728-219.614-3.248 15.594-5.197 31.836-5.197 48.080 0 115.654 93.564 209.868 209.868 209.868 60.428 0 115.004-25.34 153.342-66.273 47.43 9.096 92.91 26.639 133.197 50.68-15.596-48.732-48.732-89.666-92.264-115.654 42.234 4.547 83.168 16.244 120.852 32.486-28.584-41.582-64.322-78.617-105.256-108.506z" />
<glyph unicode="&#xf09a;" glyph-name="facebook" d="M1008 383.997c0-247.56-181.381-452.76-418.5-490v346.62h115.561l22 143.381h-137.561v93.1c0 39.221 19.221 77.461 80.82 77.461h62.561v122s-56.762 9.68-111.041 9.68c-113.34 0-187.34-68.66-187.34-192.961v-109.279h-126v-143.381h126v-346.62c-237.12 37.24-418.5 242.44-418.5 490 0 274 222 496 496 496s496-222 496-496z" />
<glyph unicode="&#xf09b;" glyph-name="github" horiz-adv-x="992" d="M331.8 101.196c0-4-4.602-7.199-10.4-7.199-6.6-0.6-11.201 2.6-11.201 7.199 0 4 4.602 7.201 10.4 7.201 6 0.6 11.201-2.6 11.201-7.201zM269.6 110.196c1.4 4 7.201 6 12.4 4.602 6-1.801 9.801-6.4 8.6-10.4-1.199-4-7.199-6-12.4-4-6 1.199-10 5.799-8.6 9.799zM358 113.596c5.801 0.6 11.199-2 11.801-5.799 0.6-4-3.4-7.801-9.201-9.201-6-1.4-11.199 1.201-11.799 5.201-0.602 4.6 3.398 8.398 9.199 9.799zM489.6 879.997c277.4 0 502.4-210.6 502.4-488 0-221.8-135.6-411.6-335.6-478-25.4-4.6-34.6 11.199-34.6 24.199 0 16.4 0.6 99.801 0.6 167.201 0 47-15.6 77-34 92.799 111.799 12.602 229.6 28 229.6 221 0 54.801-19.6 82.4-51.6 117.801 5.199 13 22.199 66.4-5.201 135.801-41.799 13.199-138-54-138-54-40 11.199-83 17-125.6 17s-85.6-5.801-125.6-17c0 0-96.199 67-138 54-27.4-69.201-10.4-122.801-5.199-135.801-32-35.199-47.201-62.801-47.201-117.801 0-192.398 112.801-208.6 224.6-221-14.398-13.199-27.398-35.398-32-67.398-28.6-13.201-102-35.4-145.799 41.799-27.4 47.6-77.201 51.6-77.201 51.6-49 0.602-3.199-30.799-3.199-30.799 32.801-15 55.6-73.201 55.6-73.201 29.4-89.6 169.4-59.6 169.4-59.6 0-42 0.6-110.4 0.6-122.799 0-13-9-28.801-34.6-24.201-199.4 66.801-339 256.6-339 478.4 0 277.4 212.2 488 489.6 488zM194.4 190.196c2.6 2.602 7.199 1.201 10.4-2 3.398-3.799 4-8.398 1.398-10.398-2.6-2.602-7.199-1.201-10.398 2-3.4 3.799-4 8.398-1.4 10.398zM172.801 206.397c1.398 2 4.6 2.6 8.6 1.4 4-2 6-5.201 4.6-7.801-1.4-2.801-5.4-3.4-8.6-1.4-4 2-6 5.201-4.6 7.801zM237.6 135.196c2.6 3.201 8.6 2.602 13-2 4-3.799 5.201-9.799 2.6-12.398-2.6-3.201-8.398-2.602-13 2-4.6 3.799-5.799 9.799-2.6 12.398zM214.8 164.596c3.199 2.6 8.398 0.6 11.199-4 3.199-4.6 3.199-9.799 0-12.4-2.6-2-8 0-11.199 4.602-3.201 4.6-3.201 9.799 0 11.799z" />
<glyph unicode="&#xf0a8;" glyph-name="arrow-circle-left" d="M512-112c-274 0-496 222-496 496s222 496 496 496 496-222 496-496-222-496-496-496zM569.8 175.199l-151 144.801h365.2c26.6 0 48 21.4 48 48v32c0 26.6-21.4 48-48 48h-365.2l151 144.801c19.398 18.6 19.799 49.6 0.799 68.6l-22 21.799c-18.799 18.801-49.199 18.801-67.799 0l-265.4-265.2c-18.801-18.801-18.801-49.199 0-67.801l265.4-265.398c18.799-18.801 49.199-18.801 67.799 0l22 21.799c19 19 18.6 50-0.799 68.6z" />
<glyph unicode="&#xf0a9;" glyph-name="arrow-circle-right" d="M512 880c274 0 496-222 496-496s-222-496-496-496-496 222-496 496 222 496 496 496zM454.2 592.8l151-144.801h-365.2c-26.6 0-48-21.4-48-48v-32c0-26.6 21.4-48 48-48h365.2l-151-144.801c-19.398-18.6-19.799-49.6-0.799-68.6l22-21.799c18.799-18.801 49.199-18.801 67.799 0l265.4 265.2c18.801 18.801 18.801 49.199 0 67.801l-265.4 265.6c-18.799 18.799-49.199 18.799-67.799 0l-22-21.801c-19-19.199-18.6-50.199 0.799-68.799z" />
<glyph unicode="&#xf0aa;" glyph-name="arrow-circle-up" d="M16 384c0 274 222 496 496 496s496-222 496-496-222-496-496-496-496 222-496 496zM303.2 326.2l144.801 151v-365.2c0-26.6 21.4-48 48-48h32c26.6 0 48 21.4 48 48v365.2l144.801-151c18.6-19.398 49.6-19.799 68.6-0.799l21.799 22c18.801 18.799 18.801 49.199 0 67.799l-265.2 265.4c-18.801 18.801-49.199 18.801-67.801 0l-265.6-265.4c-18.799-18.799-18.799-49.199 0-67.799l21.801-22c19.199-19 50.199-18.6 68.799 0.799z" />
<glyph unicode="&#xf0ab;" glyph-name="arrow-circle-down" d="M1008 384c0-274-222-496-496-496s-496 222-496 496 222 496 496 496 496-222 496-496zM720.8 441.8l-144.801-151v365.2c0 26.6-21.4 48-48 48h-32c-26.6 0-48-21.4-48-48v-365.2l-144.801 151c-18.6 19.398-49.6 19.799-68.6 0.799l-21.799-22c-18.801-18.799-18.801-49.199 0-67.799l265.2-265.4c18.801-18.801 49.199-18.801 67.801 0l265.398 265.4c18.801 18.799 18.801 49.199 0 67.799l-21.799 22c-19 19-50 18.6-68.6-0.799z" />
<glyph unicode="&#xf0ac;" glyph-name="globe" horiz-adv-x="992" d="M673 575.993h-354c29 178.6 97.4 304 177 304s148-125.4 177-304zM304 383.993c0 44.4 2.4 87 6.6 128h370.6c4.201-41 6.602-83.6 6.602-128s-2.4-87-6.602-128h-370.6c-4.199 41-6.6 83.6-6.6 128zM953.4 575.993h-216c-17.6 113.801-51.201 215.6-100 283.2 143-42.398 258.798-147.398 316-283.2zM354.4 859.193c-48.801-67.6-82.4-169.398-99.801-283.2h-216c57 135.801 173 240.8 315.8 283.2zM974.8 511.993c10.799-41 17-83.6 17-128s-6.201-87-17.201-128h-229.2c4.199 42 6.6 85 6.6 128s-2.4 86-6.6 128h229.4zM240 383.993c0-43 2.4-86 6.4-128h-229.202c-10.799 41-17.199 83.6-17.199 128s6.4 87 17.199 128h229.4c-4.199-42-6.6-85-6.6-128zM319 191.993h354c-29-178.6-97.4-304-177-304s-148 125.4-177 304zM637.6-91.206c48.801 67.6 82.4 169.398 100 283.2h216c-57.199-135.801-173.199-240.8-316-283.2zM38.6 191.993h216c17.6-113.801 51.201-215.6 100-283.2-143 42.398-258.798 147.398-316 283.2z" />
<glyph unicode="&#xf0c0;" glyph-name="users" horiz-adv-x="1280" d="M192 447.993c-70.6 0-128 57.4-128 128s57.4 128 128 128 128-57.4 128-128-57.4-128-128-128zM1088 447.993c-70.6 0-128 57.4-128 128s57.4 128 128 128 128-57.4 128-128-57.4-128-128-128zM1152 383.993c70.6 0 128-57.4 128-128v-64c0-35.4-28.6-64-64-64h-132c-12.4 94.801-69.6 174.6-150.199 218.8 23.199 23 55 37.199 90.199 37.199h128zM640 383.993c-123.801 0-224 100.199-224 224s100.199 224 224 224 224-100.199 224-224-100.199-224-224-224zM793.6 319.993c127.201 0 230.4-103.199 230.4-230.4v-57.6c0-53-43-96-96-96h-576c-53 0-96 43-96 96v57.6c0 127.201 103.199 230.4 230.4 230.4h16.6c41.801-20 87.801-32 137-32s95.4 12 137 32h16.6zM346.2 346.793c-80.6-44.201-137.799-124-150.398-218.8h-131.801c-35.4 0-64 28.6-64 64v64c0 70.6 57.4 128 128 128h128c35.199 0 67-14.199 90.199-37.199z" />
<glyph unicode="&#xf0c1;" glyph-name="link" d="M653.224 525.211c119.494-119.619 117.854-311.396 0.719-429.182-0.219-0.238-0.479-0.5-0.719-0.738l-134.4-134.4c-118.541-118.541-311.398-118.525-429.92 0-118.541 118.52-118.541 311.4 0 429.92l74.211 74.211c19.682 19.682 53.572 6.602 54.588-21.211 1.297-35.445 7.652-71.055 19.381-105.441 3.973-11.645 1.135-24.525-7.566-33.225l-26.174-26.174c-56.051-56.053-57.811-147.32-2.311-203.92 56.049-57.158 148.172-57.498 204.65-1.021l134.4 134.381c56.383 56.383 56.146 147.514 0 203.66-7.402 7.389-14.857 13.127-20.682 17.139-7.33 5.031-13.555 16.326-13.895 25.211-0.791 21.135 6.695 42.912 23.396 59.611l42.107 42.111c11.043 11.041 28.365 12.398 41.168 3.461 12.166-8.494 30.553-23.902 41.045-34.393zM935.094 807.095c118.541-118.52 118.541-311.4-0.002-429.918l-74.211-74.211c-19.682-19.68-53.57-6.602-54.588 21.211-1.297 35.445-7.652 71.055-19.381 105.443-3.973 11.643-1.135 24.523 7.566 33.223l26.174 26.174c56.053 56.053 57.811 147.32 2.311 203.92-56.051 57.158-148.174 57.498-204.65 1.021l-134.4-134.381c-56.383-56.383-56.146-147.514 0-203.66 7.402-7.389 14.857-13.127 20.682-17.139 7.33-5.031 13.555-16.326 13.895-25.211 0.791-21.135-6.695-42.912-23.396-59.611l-42.107-42.111c-11.041-11.039-28.365-12.398-41.168-3.461-12.164 8.492-30.551 23.9-41.043 34.391-119.494 119.619-117.852 311.396-0.719 429.182 0.219 0.238 0.479 0.5 0.719 0.738l134.4 134.4c118.541 118.541 311.398 118.525 429.92 0z" />
<glyph unicode="&#xf0c6;" glyph-name="paperclip" horiz-adv-x="896" d="M86.492-36.29c-116.859 120.578-114.682 315.022 2.771 435.162l419.52 429.122c88.633 90.664 232.704 90.672 321.344 0 87.779-89.787 87.885-234.658 0-324.552l-365.7-373.704c-59.709-61.074-157.266-60.223-215.962 1.996-56.551 59.939-54.736 154.945 2.902 213.906l287.486 293.67c12.365 12.627 32.625 12.844 45.252 0.482l45.723-44.76c12.629-12.363 12.844-32.623 0.482-45.252l-287.458-293.64c-9.863-10.090-10.471-26.857-1.295-36.584 8.744-9.268 22.49-9.422 31.375-0.33l365.7 373.702c39.225 40.125 39.225 105.451-0.023 145.596-38.377 39.254-99.914 39.275-138.307 0l-419.524-429.12c-69.525-71.121-70.598-186.24-2.381-256.626 68.020-70.186 177.969-70.273 246.116-0.57l344.122 351.998c12.354 12.637 32.613 12.865 45.252 0.512l45.754-44.729c12.637-12.354 12.867-32.613 0.512-45.252l-344.122-351.996c-119.15-121.877-311.884-120.432-429.54 0.971z" />
<glyph unicode="&#xf0d2;" glyph-name="pinterest" horiz-adv-x="992" d="M992 383.997c0-274-222-496-496-496-51.199 0-100.4 7.801-146.801 22.199 20.201 33 50.4 87 61.602 130 6 23.201 30.799 118 30.799 118 16.201-30.799 63.4-57 113.6-57 149.602 0 257.4 137.602 257.4 308.602 0 163.799-133.799 286.398-305.798 286.398-214 0-327.8-143.6-327.8-300.2 0-72.801 38.801-163.4 100.6-192.199 9.4-4.4 14.4-2.4 16.6 6.6 1.602 6.799 10 40.6 13.801 56.199 1.199 5 0.6 9.4-3.4 14.201-20.199 25-36.6 70.6-36.6 113.199 0 109.4 82.801 215.2 224 215.2 121.801 0 207.2-83 207.2-201.798 0-134.201-67.799-227.202-156-227.202-48.6 0-85.199 40.201-73.398 89.602 14 59 41 122.6 41 165.199 0 38-20.4 69.801-62.801 69.801-49.801 0-89.801-51.4-89.801-120.4 0-44 14.801-73.6 14.801-73.6s-49-207.602-58-246.4c-10-42.801-6-103.201-1.801-142.4-184.398 72.199-315.2 251.8-315.2 462 0 274 222 496 496 496s496-222 496-496z" />
<glyph unicode="&#xf0d3;" glyph-name="pinterest-square" d="M896 735.997v-704c0-53-43-96-96-96h-491.2c19.6 32.801 44.799 80 54.799 118.6 6 23 30.6 116.801 30.6 116.801 16-30.6 62.801-56.4 112.602-56.4 148.199 0 254.798 136.199 254.798 305.4 0 162.199-132.4 283.6-302.798 283.6-212 0-324.4-142.199-324.4-297.2 0-72 38.4-161.602 99.6-190.201 9.4-4.4 14.199-2.4 16.4 6.6 1.6 6.801 10 40.201 13.6 55.602 1.199 5 0.6 9.199-3.4 14-20.199 24.6-36.6 69.799-36.6 112 0 108.398 82 213.2 221.8 213.2 120.6 0 205.2-82.199 205.2-199.801 0-132.799-67-224.798-154.4-224.798-48.199 0-84.199 39.799-72.799 88.799 13.799 58.4 40.6 121.4 40.6 163.602 0 106-151 91.398-151-50 0-43.4 14.6-73 14.6-73-62.801-265.602-72.199-269-59.199-385.202l4.398-1.6h-177.199c-53 0-96 43-96 96v704c0 53 43 96 96 96h704c53 0 96-43 96-96z" />
<glyph unicode="&#xf0d4;" glyph-name="google-plus-square" d="M800 831.997c53 0 96-43 96-96v-704c0-53-43-96-96-96h-704c-53 0-96 43-96 96v704c0 53 43 96 96 96h704zM328 183.997c115.4 0 192 81 192 195.199 0 13-1.199 23.201-3.199 33.201h-188.801v-68.801h113.801c-4.801-29.199-34.4-86.199-113.602-86.199-68.199 0-123.799 56.6-123.799 126.4 0 70 55.6 126.398 123.799 126.398 39 0 64.801-16.6 79.602-30.799l54.199 52.199c-35 32.801-80 52.4-134 52.4-110.6 0-200-89.4-200-200s89.4-200 200-200zM768 347.597v58.4h-58v58h-58.4v-58h-58v-58.4h58v-58h58.4v58h58z" />
<glyph unicode="&#xf0d5;" glyph-name="google-plus-g" horiz-adv-x="1280" d="M772.122 439.005c3.668-19.385 6.287-38.768 6.287-63.912 0-219.506-147.211-375.096-368.808-375.096-212.168 0-384 171.83-384 384s171.832 384 384 384c103.729 0 190.166-37.719 257.222-100.584l-104.252-100.061c-28.291 27.242-78.057 59.199-152.971 59.199-130.967 0-237.84-108.443-237.84-242.554s106.873-242.554 237.84-242.554c151.922 0 209.028 109.49 217.93 165.547h-217.93v132.018l362.522-0.002zM1142.934 426.131h111.467v-112.002h-111.467v-111.467h-112.002v111.467h-111.465v112.002h111.465v111.465h112.002v-111.465z" />
<glyph unicode="&#xf0d7;" glyph-name="caret-down" horiz-adv-x="640" d="M62.6 511.993h514.6c35.602 0 53.4-43 28.201-68.199l-257.202-257.4c-15.6-15.6-41-15.6-56.6 0l-257.2 257.4c-25.201 25.199-7.4 68.199 28.199 68.199z" />
<glyph unicode="&#xf0d8;" glyph-name="caret-up" horiz-adv-x="640" d="M577.324 191.993h-514.648c-35.637 0-53.482 43.086-28.283 68.283l257.324 257.324c15.619 15.621 40.947 15.621 56.566 0l257.324-257.324c25.201-25.197 7.354-68.283-28.283-68.283z" />
<glyph unicode="&#xf0d9;" glyph-name="caret-left" horiz-adv-x="384" d="M384 641.317v-514.648c0-35.637-43.086-53.482-68.283-28.283l-257.324 257.324c-15.621 15.619-15.621 40.947 0 56.566l257.324 257.324c25.197 25.201 68.283 7.354 68.283-28.283z" />
<glyph unicode="&#xf0da;" glyph-name="caret-right" horiz-adv-x="384" d="M0 126.669v514.648c0 35.637 43.086 53.482 68.283 28.283l257.324-257.324c15.621-15.619 15.621-40.947 0-56.566l-257.324-257.324c-25.197-25.201-68.283-7.354-68.283 28.283z" />
<glyph unicode="&#xf0dc;" glyph-name="sort" horiz-adv-x="640" d="M82 319.993h476c42.801 0 64.199-51.801 34-82l-238-238c-18.801-18.801-49.199-18.801-67.801 0l-238.2 238c-30.199 30.199-8.801 82 34 82zM592 529.993c30.199-30.199 8.801-82-34-82h-476c-42.801 0-64.199 51.801-34 82l238.2 238c18.602 18.801 49 18.801 67.801 0z" />
<glyph unicode="&#xf0dd;" glyph-name="sort-down" horiz-adv-x="640" d="M82 319.993h476c42.801 0 64.199-51.801 34-82l-238-238c-18.801-18.801-49.199-18.801-67.801 0l-238.2 238c-30.199 30.199-8.801 82 34 82z" />
<glyph unicode="&#xf0de;" glyph-name="sort-up" horiz-adv-x="640" d="M558 447.993h-476c-42.801 0-64.199 51.801-34 82l238 238c18.801 18.801 49.199 18.801 67.801 0l238-238c30.398-30.199 9-82-33.801-82z" />
<glyph unicode="&#xf0e1;" glyph-name="linkedin" d="M200.56-0.003h-185.76v598.2h185.76v-598.2zM107.58 679.797c-59.4 0-107.58 49.199-107.58 108.6 0 59.383 48.195 107.58 107.58 107.58s107.58-48.197 107.58-107.58c0-59.4-48.199-108.6-107.58-108.6zM895.8-0.003h-185.361v291.2c0 69.4-1.4 158.4-96.58 158.4-96.58 0-111.379-75.4-111.379-153.4v-296.2h-185.561v598.2h178.16v-81.6h2.6c24.801 47 85.381 96.6 175.76 96.6 188 0 222.56-123.799 222.56-284.6v-328.6h-0.199z" />
<glyph unicode="&#xf100;" glyph-name="angle-double-left" horiz-adv-x="896" d="M447.4 417.993l272 272c18.799 18.801 49.199 18.801 67.799 0l45.201-45.199c18.799-18.801 18.799-49.201 0-67.801l-192.6-193 192.799-192.801c18.801-18.799 18.801-49.199 0-67.799l-45.199-45.4c-18.801-18.801-49.201-18.801-67.801 0l-272 272c-19 18.801-19 49.199-0.199 68zM63.4 349.993c-18.801 18.801-18.801 49.199 0.199 68l272 272c18.6 18.801 49 18.801 67.801 0l45.199-45.4c18.801-18.6 18.801-49 0-67.799l-192.799-192.801 192.6-193c18.799-18.6 18.799-49 0-67.801l-45.201-45.199c-18.6-18.801-49-18.801-67.799 0z" />
<glyph unicode="&#xf101;" glyph-name="angle-double-right" horiz-adv-x="896" d="M448.6 349.993l-272-272c-18.799-18.801-49.199-18.801-67.799 0l-45.201 45.199c-18.799 18.801-18.799 49.201 0 67.801l192.801 192.801-192.801 192.799c-18.799 18.801-18.799 49.201 0 67.801l45 45.6c18.801 18.801 49.201 18.801 67.801 0l272-272c19-18.801 19-49.199 0.199-68zM832.6 417.993c18.801-18.801 18.801-49.199 0-67.6l-272-272c-18.6-18.801-49-18.801-67.799 0l-45.201 45.199c-18.799 18.6-18.799 49 0 67.801l192.801 192.799-192.801 192.801c-18.799 18.6-18.799 49 0 67.801l45.201 45.199c18.6 18.801 49 18.801 67.799 0z" />
<glyph unicode="&#xf102;" glyph-name="angle-double-up" horiz-adv-x="640" d="M354 384.593l272-272c18.801-18.799 18.801-49.199 0-67.799l-45.199-45.201c-18.801-18.799-49.201-18.799-67.801 0l-193 192.6-192.801-192.799c-18.799-18.801-49.199-18.801-67.799 0l-45.4 45.199c-18.801 18.801-18.801 49.201 0 67.801l272 272c18.801 19 49.199 19 68 0.199zM286 768.593c18.801 18.801 49.199 18.801 67.6 0l272-272c18.801-18.6 18.801-49 0-67.799l-45.199-45.201c-18.6-18.799-49-18.799-67.801 0l-192.799 192.801-192.801-192.801c-18.6-18.799-49-18.799-67.801 0l-45.199 45.201c-18.801 18.6-18.801 49 0 67.799z" />
<glyph unicode="&#xf103;" glyph-name="angle-double-down" horiz-adv-x="640" d="M286 383.393l-272 272c-18.801 18.799-18.801 49.199 0 67.799l45.199 45.201c18.801 18.799 49.201 18.799 67.801 0l192.801-192.801 192.799 192.801c18.801 18.799 49.201 18.799 67.801 0l45.6-45c18.801-18.801 18.801-49.201 0-67.801l-272-272c-18.801-19-49.199-19-68-0.199zM354-0.607c-18.801-18.801-49.199-18.801-68 0.199l-272 272c-18.801 18.6-18.801 49 0 67.801l45.4 45.199c18.6 18.801 49 18.801 67.799 0l192.801-192.799 193 192.6c18.6 18.799 49 18.799 67.801 0l45.199-45.201c18.801-18.6 18.801-49 0-67.799z" />
<glyph unicode="&#xf113;" glyph-name="github-alt" horiz-adv-x="960" d="M372.2 238.597c0-41.799-21.799-110.199-73.398-110.199-51.602 0-73.4 68.4-73.4 110.199 0 41.801 21.799 110.201 73.4 110.201s73.398-68.4 73.398-110.201zM960 339.597c0-63.799-6.4-131.4-35-190-75.801-153.199-284.2-149.6-433.4-149.6-151.6 0-372.4-5.4-451.2 149.6-29.201 58-40.4 126.201-40.4 190 0 83.801 27.801 163 83 227.202-10.4 31.6-15.4 64.799-15.4 97.6 0 43 9.801 64.6 29.201 103.6 90.6 0 148.6-18 217.6-72 58 13.801 117.6 20 177.4 20 54 0 108.398-5.801 160.799-18.4 68 53.4 126 70.4 215.6 70.4 19.602-39 29.201-60.6 29.201-103.6 0-32.801-5.201-65.4-15.4-96.4 55-64.801 78-144.6 78-228.4zM831.4 238.597c0 87.801-53.4 165.201-147 165.201-37.801 0-74-6.801-112-12-29.801-4.602-59.6-6.4-90.201-6.4-30.398 0-60.199 1.799-90.199 6.4-37.4 5.199-74 12-112 12-93.6 0-147-77.4-147-165.201 0-175.6 160.801-202.6 300.8-202.6h96.398c140.602 0 301.202 26.801 301.202 202.6zM666.2 348.797c51.602 0 73.4-68.4 73.4-110.201 0-41.799-21.799-110.199-73.4-110.199s-73.398 68.4-73.398 110.199c0 41.801 21.799 110.201 73.398 110.201z" />
<glyph unicode="&#xf118;" glyph-name="smile" horiz-adv-x="992" d="M496 879.993c274 0 496-222 496-496s-222-496-496-496-496 222-496 496 222 496 496 496zM656 543.993c-35.4 0-64-28.6-64-64s28.6-64 64-64 64 28.6 64 64-28.6 64-64 64zM336 543.993c-35.4 0-64-28.6-64-64s28.6-64 64-64 64 28.6 64 64-28.6 64-64 64zM725.6 203.593c27 32.6-22.4 73.4-49.199 41-44.801-53.6-110.4-84.4-180.4-84.4s-135.6 30.602-180.4 84.4c-27.199 32.4-76.4-8.4-49.199-41 57-68.4 140.6-107.6 229.6-107.6s172.6 39.199 229.6 107.6z" />
<glyph unicode="&#xf119;" glyph-name="frown" horiz-adv-x="992" d="M496 879.993c274 0 496-222 496-496s-222-496-496-496-496 222-496 496 222 496 496 496zM656 543.993c-35.4 0-64-28.6-64-64s28.6-64 64-64 64 28.6 64 64-28.6 64-64 64zM336 543.993c-35.4 0-64-28.6-64-64s28.6-64 64-64 64 28.6 64 64-28.6 64-64 64zM676.4 107.593c27-32.6 76.199 8.4 49 40.801-56.801 68.4-140.6 107.6-229.4 107.6s-172.6-39.199-229.6-107.4c-27-32.6 22.199-73.6 49.199-41 44.801 53.6 110.6 84.4 180.4 84.4s135.6-30.801 180.4-84.4z" />
<glyph unicode="&#xf11a;" glyph-name="meh" horiz-adv-x="992" d="M496 879.993c274 0 496-222 496-496s-222-496-496-496-496 222-496 496 222 496 496 496zM336 543.993c-35.4 0-64-28.6-64-64s28.6-64 64-64 64 28.6 64 64-28.6 64-64 64zM688 159.993c42.4 0 42.4 64 0 64h-384c-42.4 0-42.4-64 0-64h384zM656 415.993c35.4 0 64 28.6 64 64s-28.6 64-64 64-64-28.6-64-64 28.6-64 64-64z" />
<glyph unicode="&#xf127;" glyph-name="unlink" d="M608.166 84.179c9.371-9.371 9.371-24.568 0-33.941l-89.348-89.348c-118.525-118.525-311.386-118.533-429.922 0-118.529 118.529-118.529 311.39 0 429.92l89.35 89.35c9.371 9.371 24.568 9.371 33.941 0l79.197-79.195c9.371-9.373 9.371-24.568 0-33.943l-89.352-89.348c-56.143-56.146-56.143-147.5 0-203.646 56.145-56.143 147.5-56.145 203.648 0l89.348 89.35c9.373 9.371 24.568 9.371 33.943 0zM495.030 604.611l-79.193 79.197c-9.371 9.373-9.371 24.57 0 33.941l89.348 89.348c118.533 118.529 311.39 118.529 429.922 0s118.531-311.388 0-429.92l-89.35-89.35c-9.373-9.371-24.57-9.371-33.941 0l-79.197 79.195c-9.371 9.375-9.371 24.57 0 33.943l89.352 89.348c56.143 56.146 56.143 147.5 0 203.646-56.148 56.145-147.504 56.148-203.648 0l-89.348-89.35c-9.375-9.371-24.57-9.371-33.943 0zM964.686-113.948c-18.744-18.744-49.135-18.744-67.881 0l-882.746 882.746c-18.746 18.744-18.746 49.135 0 67.881l45.256 45.256c18.744 18.746 49.135 18.746 67.881 0l882.744-882.748c18.746-18.744 18.746-49.135 0-67.881z" />
<glyph unicode="&#xf136;" glyph-name="maxcdn" d="M922.2 10.596h-194.799l103.799 485.4c4.602 20.4 1.801 39-8.799 51.4-10 12.199-27.4 19.199-48.4 19.199h-98.6l-119-556h-194.801l119 556h-166.799l-119-556h-194.801l119 556-89.199 190.801h744.2c78.801 0 150.6-32.6 196.6-89.801 46.6-57.199 63.6-134.799 47.201-211.798z" />
<glyph unicode="&#xf137;" glyph-name="chevron-circle-left" d="M512-112.007c-274 0-496 222-496 496s222 496 496 496 496-222 496-496-222-496-496-496zM284.2 349.993l271-271c18.801-18.801 49.201-18.801 67.801 0l34 34c18.801 18.801 18.801 49.199 0 67.801l-203.2 203.2 203.2 203.2c18.801 18.801 18.801 49.201 0 67.801l-34 34c-18.801 18.801-49.199 18.801-67.801 0l-271-271c-18.799-18.801-18.799-49.199 0-68z" />
<glyph unicode="&#xf138;" glyph-name="chevron-circle-right" d="M512 879.993c274 0 496-222 496-496s-222-496-496-496-496 222-496 496 222 496 496 496zM739.8 417.993l-271 271c-18.801 18.801-49.201 18.801-67.801 0l-34-34c-18.801-18.801-18.801-49.199 0-67.801l203.2-203.2-203.2-203.2c-18.801-18.801-18.801-49.201 0-67.801l34-34c18.801-18.801 49.199-18.801 67.801 0l271 271c18.799 18.801 18.799 49.199 0 68z" />
<glyph unicode="&#xf139;" glyph-name="chevron-circle-up" d="M16 383.993c0 274 222 496 496 496s496-222 496-496-222-496-496-496-496 222-496 496zM478 611.793l-271-271c-18.801-18.801-18.801-49.201 0-67.801l34-34c18.801-18.801 49.199-18.801 67.801 0l203.2 203.2 203.2-203.2c18.801-18.801 49.201-18.801 67.801 0l34 34c18.801 18.801 18.801 49.199 0 67.801l-271 271c-18.801 18.799-49.199 18.799-68 0z" />
<glyph unicode="&#xf13a;" glyph-name="chevron-circle-down" d="M1008 383.993c0-274-222-496-496-496s-496 222-496 496 222 496 496 496 496-222 496-496zM546 156.192l271 271c18.801 18.801 18.801 49.201 0 67.801l-34 34c-18.801 18.801-49.199 18.801-67.801 0l-203.2-203.2-203.2 203.2c-18.801 18.801-49.201 18.801-67.801 0l-34-34c-18.801-18.801-18.801-49.199 0-67.801l271-271c18.801-18.799 49.199-18.799 68 0z" />
<glyph unicode="&#xf13b;" glyph-name="html5" horiz-adv-x="768" d="M0 831.997h768l-69.801-791.6-315.2-104.4-313.2 104.4zM616.4 576.197l8.799 95.4h-482.2l25.6-291.2h333.8l-12-124.4-107.4-29-107 29-7 76.199h-95.4l12-151.6 197.4-54.6h2.199v0.6l195.801 54 27.199 296.8h-351.2l-8.199 98.799h367.6z" />
<glyph unicode="&#xf13c;" glyph-name="css3" d="M960 831.997l-128-736-446.6-160-385.4 160 39.199 189.6h164l-16-81.199 232.8-88.801 268.2 88.801 37.602 194.199h-666.8l32 164h667.4l21 105.4h-666.8l32.6 164h814.8z" />
<glyph unicode="&#xf144;" glyph-name="play-circle" d="M512 879.993c274 0 496-222 496-496s-222-496-496-496-496 222-496 496 222 496 496 496zM743.4 335.993c32.799 18.199 32.799 65.6 0 84l-352 214c-31.801 17.6-71.4-5.199-71.4-42v-416c0-37 39.801-59.6 71.4-42z" />
<glyph unicode="&#xf15a;" glyph-name="btc" horiz-adv-x="768" d="M620.408 410.721c92.012-22.057 149.994-76.889 138.652-199.781-14.496-153.145-123.193-194.109-285.792-202.934v-136.010h-97.055v133.49c-24.58 0-50.42 0-76.889 0.629v-134.119h-97.057v136.010s-17.777 0.631-194.74 0.631l19.535 115.332c69.461-1.229 100.66-6.842 106.51 32.141v434.86c-9.213 49.133-49.418 44.209-126.047 42.854v103.355c117.496-0.551 159.057-1.078 194.74 0v158.818h97.057v-155.666c25.838 0.631 51.678 1.26 76.889 1.26v154.406h97.055v-158.818c124.785-10.711 218.984-49.156 229.702-163.857 8.193-83.82-27.102-134.24-82.561-162.6zM301.216 626.891v-193.48c54.832 0 226.252-12.605 226.252 96.424 0 114.070-171.422 97.057-226.252 97.057zM301.216 123.339c65.543 0 266.252-13.865 266.254 106.506 0 124.787-200.71 106.51-266.254 106.51v-213.016z" />
<glyph unicode="&#xf164;" glyph-name="thumbs-up" d="M208 447.993c26.51 0 48-21.49 48-48v-480c0-26.51-21.49-48-48-48h-160c-26.51 0-48 21.49-48 48v480c0 26.51 21.49 48 48 48h160zM128-48.007c26.51 0 48 21.49 48 48s-21.49 48-48 48-48-21.49-48-48 21.49-48 48-48zM768 733.089c0-84.832-51.939-132.416-66.555-189.096h203.448c66.793 0 118.793-55.492 119.105-116.195 0.168-35.877-15.092-74.498-38.879-98.395l-0.219-0.221c19.672-46.674 16.473-112.074-18.617-158.938 17.363-51.789-0.137-115.408-32.764-149.514 8.596-35.195 4.488-65.15-12.295-89.264-40.82-58.648-141.992-59.475-227.546-59.475l-5.689 0.002c-96.574 0.033-175.611 35.195-239.122 63.449-31.914 14.199-73.641 31.775-105.301 32.357-13.080 0.24-23.566 10.914-23.566 23.996v427.54c0 6.4 2.564 12.543 7.115 17.043 79.229 78.287 113.297 161.174 178.234 226.22 29.607 29.664 40.377 74.473 50.787 117.805 8.893 37.002 27.498 115.588 67.863 115.588 48 0 144-16 144-162.904z" />
<glyph unicode="&#xf165;" glyph-name="thumbs-down" d="M0 783.993c0 26.51 21.49 48 48 48h160c26.51 0 48-21.49 48-48v-480c0-26.51-21.49-48-48-48h-160c-26.51 0-48 21.49-48 48v480zM80 383.993c0-26.51 21.49-48 48-48s48 21.49 48 48-21.49 48-48 48-48-21.49-48-48zM624-128.007c-40.365 0-58.971 78.586-67.861 115.59-10.412 43.332-21.178 88.141-50.787 117.805-64.938 65.047-99.006 147.934-178.234 226.22-3.928 3.883-7.115 11.518-7.115 17.041v427.542c0 13.082 10.486 23.756 23.566 23.996 31.662 0.58 73.387 18.158 105.301 32.357 63.51 28.254 142.549 63.416 239.122 63.449h5.688c85.555 0 186.727-0.826 227.548-59.475 16.783-24.113 20.891-54.068 12.295-89.264 32.625-34.105 50.127-97.727 32.764-149.514 35.088-46.863 38.287-112.264 18.617-158.938l0.219-0.221c23.787-23.898 39.047-62.518 38.879-98.395-0.313-60.703-52.314-116.195-119.105-116.195h-203.45c14.615-56.68 66.555-104.264 66.555-189.096 0-146.904-96-162.904-144-162.904z" />
<glyph unicode="&#xf167;" glyph-name="youtube" horiz-adv-x="1152" d="M1099.31 647.831c22.824-85.734 22.824-264.61 22.824-264.61s0-178.877-22.824-264.612c-12.563-47.299-49.574-83-96.568-95.641-85.182-22.973-426.742-22.973-426.742-22.973s-341.56 0-426.742 22.973c-46.994 12.641-84.006 48.342-96.568 95.641-22.824 85.734-22.824 264.612-22.824 264.612s0 178.875 22.824 264.61c12.563 47.301 49.574 84.551 96.568 97.193 85.182 22.973 426.742 22.973 426.742 22.973s341.562 0 426.742-22.973c46.994-12.641 84.006-49.893 96.568-97.193zM464.29 220.815l285.478 162.402-285.478 162.41v-324.812z" />
<glyph unicode="&#xf168;" glyph-name="xing" horiz-adv-x="768" d="M325.4 475.997c-3.6-6.6-50.4-88.801-140.201-247-9.799-16.6-21.6-25-35.398-25h-130.201c-15.4 0-24.199 15-17 28.801l138 242.6c0.4 0 0.4 0.199 0 0.6l-87.799 151.199c-8.602 15.602 0.6 28.201 17 28.201h130.199c14.6 0 26.6-8.201 36-24.4zM765.2 803.797l-288-506v-0.602l183.201-333.2c7.799-14.199 0.4-28.199-17-28.199h-130.4c-15.199 0-27.199 8-36 24.398l-184.801 337c6.602 11.602 103 181.602 289.602 510.4 9.199 16.201 20.799 24.4 35 24.4h131.398c16 0 24.602-13.4 17-28.199z" />
<glyph unicode="&#xf169;" glyph-name="xing-square" d="M800 831.997c53 0 96-43 96-96v-704c0-53-43-96-96-96h-704c-53 0-96 43-96 96v704c0 53 43 96 96 96h704zM280.8 255.597c9.799 0 18.199 5.801 25.199 18.201 64.199 113 97.6 171.799 100.199 176.398l-63.799 110.602c-6.801 11.6-15.4 17.398-25.801 17.398h-93.199c-11.6 0-18-9-12-20.199l62.799-108c0.201-0.199 0.201-0.4 0-0.4l-98.6-173.4c-5.4-10 1-20.6 12-20.6h93.201zM720.2 683.797c5.602 10.6-0.6 20.199-12 20h-93.799c-10.201 0-18.4-5.801-25-17.4-133.201-234.8-202.202-356.4-206.8-364.6l132-240.602c6.4-11.6 14.801-17.398 25.801-17.398h93.199c12.201 0 17.6 10 12 20.199l-131 238v0.4z" />
<glyph unicode="&#xf16b;" glyph-name="dropbox" horiz-adv-x="1056" d="M528.8 663.397l-264-168.6 264-168.602-264-168.6-264.8 170.201 264.6 168.6-264.6 167 264.6 168.6zM263.2 104.596l264 168.6 264-168.6-264-168.6zM528.8 327.797l264 168.6-264 167.199 262.6 168.4 264.6-168.6-264.6-168.6 264.6-168.4-264.6-168.6z" />
<glyph unicode="&#xf16c;" glyph-name="stack-overflow" horiz-adv-x="768" d="M581.4 273.997l-16.4-78-391.4 82 16.4 78.6zM683.4 447.997l-51-61.6-307 256.6 51 61.6zM621 368.597l-33.6-72.6-362.4 169 33.4 73zM524 831.997l238.6-320.6-64-48-238.6 320.6zM565 175.997v-79.4h-400v79.4h400zM644.4 15.997v240h80v-320h-719v320h80v-240h559z" />
<glyph unicode="&#xf16d;" glyph-name="instagram" d="M448.2 613.997c127.201 0 229.8-102.6 229.8-229.8s-102.6-229.798-229.8-229.798c-127.199 0-229.798 102.6-229.798 229.798 0 127.201 102.6 229.8 229.798 229.8zM448.2 234.797c82.201 0 149.4 67 149.4 149.398 0 82.4-67 149.4-149.4 149.4-82.398 0-149.398-67-149.398-149.4 0-82.398 67.199-149.398 149.398-149.398zM741 623.397c0-29.801-24-53.6-53.6-53.6-29.801 0-53.6 24-53.6 53.6s24 53.6 53.6 53.6 53.6-24 53.6-53.6zM893.2 568.997c4.201-74 4.201-295.6 0-369.6-3.6-71.801-20-135.4-72.398-187.801-52.4-52.6-116-69-187.801-72.4-74-4.199-295.8-4.199-369.8 0-71.799 3.602-135.199 20-187.799 72.4s-69 116-72.4 187.801c-4.199 74-4.199 295.798 0 369.798 3.6 71.801 19.801 135.4 72.4 187.801s116.199 68.801 187.799 72.199c74 4.201 295.8 4.201 369.8 0 71.801-3.6 135.4-20 187.801-72.398 52.6-52.4 69-116 72.398-187.801zM797.6 119.997c23.4 58.801 18 199 18 264.2s5.4 205.202-18 264.202c-15.799 39.4-46 69.6-85.199 85.199-58.801 23.201-199 18-264.202 18-65.199 0-205.2 5.4-264.2-18-39.4-15.799-69.6-46-85.199-85.199-23.201-58.801-18-199-18-264.202 0-65.199-5.4-205.2 18-264.2 15.799-39.4 46-69.6 85.199-85.199 58.801-23.201 199-18 264.2-18s205.202-5.4 264.202 18c39.4 15.799 69.6 46 85.199 85.199z" />
<glyph unicode="&#xf16e;" glyph-name="flickr" d="M800 831.997c53 0 96-43 96-96v-704c0-53-43-96-96-96h-704c-53 0-96 43-96 96v704c0 53 43 96 96 96h704zM289 257.997c70.199 0 127 56.801 127 127s-56.801 127-127 127-127-56.801-127-127 56.801-127 127-127zM607 257.997c70.199 0 127 56.801 127 127s-56.801 127-127 127-127-56.801-127-127 56.801-127 127-127z" />
<glyph unicode="&#xf170;" glyph-name="adn" horiz-adv-x="992" d="M496 560.997l129.801-197.6h-259.602zM992 383.997c0-273.8-222.2-496-496-496s-496 222.2-496 496 222.2 496 496 496 496-222.2 496-496zM792.4 218.597l-296.4 446.4-296.4-446.4h60.801l67.199 103.4h337.202l67.199-103.4h60.4z" />
<glyph unicode="&#xf171;" glyph-name="bitbucket" d="M44.4 831.997l933.6-0.4c1.553-0.021 4.061-0.201 5.6-0.4 14.793-2.438 26.797-16.582 26.797-31.574 0-1.395-0.178-3.646-0.396-5.025l-135.801-833.6c-2.434-14.795-16.58-26.803-31.574-26.803-0.117 0-0.309 0.002-0.426 0.002h-651.398c-20.203 0.164-39.289 16.471-42.602 36.4l-135.799 824.202c-0.193 1.539-0.373 4.047-0.4 5.6 0.217 17.443 14.551 31.602 31.998 31.602 0.111 0 0.291 0 0.402-0.002zM616.2 236.397l50.4 294h-314.6l56.199-294h208z" />
<glyph unicode="&#xf173;" glyph-name="tumblr" horiz-adv-x="640" d="M619.6-64.603c-27.199-29-100-63.4-194.799-63.4-241.602 0-294 177.6-294 281.2v288h-95c-11 0-20 9-20 20v136c0 14.4 9 27.201 22.6 32 124 43.602 163 152 168.6 234.202 1.6 22 13 32.6 32.199 32.6h141.801c11 0 20-9 20-20v-230.4h166c11 0 20-8.799 20-19.799v-163.4c0-11-9-20-20-20h-166.801v-266.4c0-68.4 47.4-107.199 136-71.6 9.602 3.799 18 6.4 25.4 4.4 7-1.801 11.6-6.801 14.801-15.801l44-128.6c3.6-10 6.6-21.201-0.801-29z" />
<glyph unicode="&#xf174;" glyph-name="tumblr-square" d="M800 831.997c53 0 96-43 96-96v-704c0-53-43-96-96-96h-704c-53 0-96 43-96 96v704c0 53 43 96 96 96h704zM635.4 103.596c4.6 4.801 2.6 11.801 0.6 18.201l-27.6 80.398c-2 5.602-4.801 8.801-9.201 9.801-4.799 1.199-10-0.4-16-2.801-55.398-22.199-85 2-85 44.801v166.6h104.201c6.799 0 12.4 5.6 12.4 12.4v102.199c0 6.801-5.602 12.4-12.4 12.4h-103.801v144c0 6.801-5.6 12.4-12.4 12.4h-88.6c-11.799 0-19-6.6-20-20.4-3.6-51.4-27.799-119-105.4-146.4-8.6-3-14.199-11-14.199-20v-85c0-6.799 5.6-12.398 12.4-12.398h59.4v-180c0-64.801 32.799-175.801 183.799-175.801 59.4 0 104.801 21.4 121.801 39.6z" />
<glyph unicode="&#xf179;" glyph-name="apple" horiz-adv-x="768" d="M637.4 358.597c0-3.799-7-122.4 123.4-183.799-24.4-73.602-108-237.202-205.202-238.602-56.199 0-89.199 35.801-152.799 35.801-65.602 0-101.201-34.6-151.602-35.801-96.398-3-188.799 177-214.398 250.4-19.201 55.867-28.801 110-28.801 162.4 0 177.4 118.6 264.6 230.2 266.4 54 0 122.801-39.4 152.801-39.4 28.4 0 106 47 177 41.4 75-5.801 131.801-35.4 169.4-89.201-67.201-40.799-100.4-96.199-100-169.6zM524.2 686.997c-39.199-45.801-86.799-72.6-139-68.6-4.398 55.199 16.201 104.199 51.201 143.799 31.799 37 87.6 67 135.799 69.801 1.602-21.199 6.602-80.199-48-145z" />
<glyph unicode="&#xf17a;" glyph-name="windows" d="M0 708.597l367.2 50.6v-354.798h-367.2v304.2zM0 59.397v299.798h367.2v-350.398zM407.6 3.397v355.798h488.4v-423.2zM407.6 764.597l488.4 67.4v-427.6h-488.4v360.2z" />
<glyph unicode="&#xf17b;" glyph-name="android" horiz-adv-x="1152" d="M841.1 292.137c-26.496 0-48 21.504-48 48s21.504 48 48 48 48-21.504 48-48-21.504-48-48-48zM310.9 292.137c-26.496 0-48 21.504-48 48s21.504 48 48 48 48-21.504 48-48-21.504-48-48-48zM858.3 581.097l95.879 166c1.873 2.791 3.393 7.783 3.393 11.145 0 11.039-8.959 20-20 20-6.861 0-14.895-4.992-17.932-11.145v0l-97.080-168.139c-64.936 29.123-175.395 52.758-246.56 52.758s-181.625-23.635-246.56-52.758l-97.080 168.139c-3.037 6.152-11.070 11.145-17.932 11.145-11.041 0-20-8.961-20-20 0-3.361 1.52-8.354 3.393-11.145v0l95.879-166c-164.639-89.539-277.218-256.2-293.7-453.1h1152c-16.48 196.9-129.080 363.56-293.7 453.1z" />
</font>
</defs>
</svg>
